img image001 image001 image001 image001 image001 image001 image001 image001 image001 image001 image001 image001 image001 image001 image001

Planets Sun Sun Sun
Статистика раздачи
Автор: Снежана | Размер: 109.13 МБ | Добавлен: 27 июл 2013
Раздают: 7    Качают: 1
Скачать торрент
Скачать торрент
Описание торрента

СообщениеДобавлено: 27 июл 2013 

Клерки: Потерянная сцена / Clerks: The Lost Scene



Страна: США
Жанр: мультфильм, комедия, короткометражка
Продолжительность: 08:43
Год выпуска: 2004
Перевод: Любительский (одноголосый закадровый) kyberpunk
Русские субтитры: нет

Режиссёр: Кевин Смит / Kevin Smith
Роли озвучивали: Джефф Андерсон,Брайан О’Хэллоран,Джои Лорен Эдамс,Диана Дэвлин,Зак Натсон

Описание: Если вы поклонник таланта Кевина Смита,то пройти мимо этого короткого мульта будет просто преступлением!!! 8 минут позитива и скабрезных шуток бьющие наотмашь своим бесстыдством и обволакивающие талантом создателей !!! Данное произведение СТРОГО ДЛЯ ВЗРОСЛОЙ АУДИТОРИИ!!!

Доп. информация: Громадные БЛАГОДАРНОСТИ kyberpunk за чумовой перевод и LeXikc за предоставленный редкий видеоматериал!!!



Семпл: http://multi-up.com/542019

Качество: DVDRip Исходник DVD 5
Формат: AVI
Видео: XviD, 640х480(1,33:1), 25,00 fps,1548 kbps avg, 0.202 bit/pixel
Аудио: AC3 ,2/0 (L,R) ch ,48 kHz ,192.00 kbps kyberpunk
Субтитры: отсутствуют
Код:
Клерки Потерянная сцена (AVO kyberpunk) (2004) DVDRip 2.avi
Формат                           : AVI
Формат/Информация                : Audio Video Interleave
Размер файла                     : 109 Мбайт
Продолжительность                : 8 м. 43 с.
Общий поток                      : 1750 Кбит/сек
Программа кодирования            : VirtualDubMod 1.5.10.2 (build 2540/release)
Библиотека кодирования           : VirtualDubMod build 2540/release

Видео
Идентификатор                    : 0
Формат                           : xvid
Идентификатор кодека             : xvid
Продолжительность                : 8 м. 43 с.
Битрейт                          : 1548 Кбит/сек
Ширина                           : 640 пикс.
Высота                           : 480 пикс.
Соотношение сторон               : 4:3
Частота кадров                   : 25,000 кадр/сек
Бит/(Пиксели*Кадры)              : 0.202
Размер потока                    : 96,5 Мбайт (88%)

Аудио
Идентификатор                    : 1
Формат                           : AC-3
Формат/Информация                : Audio Coding 3
Расширение режима                : CM (complete main)
Идентификатор кодека             : 2000
Продолжительность                : 8 м. 42 с.
Вид битрейта                     : Постоянный
Битрейт                          : 192 Кбит/сек
Каналы                           : 2 канала
Расположение каналов             : Front: L R
Частота                          : 48,0 КГц
Битовая глубина                  : 16 бит
Метод сжатия                     : С потерями
Размер потока                    : 12,0 Мбайт (11%)
Выравнивание                     : Разделение по промежуткам
Продолжительность промежутка     : 40  мс. (1,00 видеокадр)
Время предзагрузки промежутка    : 500 ms









   Похожие торренты   Торрент   Размер 
В этой теме нет новых непрочитанных сообщений. Сцена / The.Scene [01-20 из 20] (2004-2006) WEBRip

3 | 1

1.95 ГБ

В этой теме нет новых непрочитанных сообщений. Клерки / Clerks (1994) DVDRip-AVC | The First Cut | A

14 | 5

3.85 ГБ

В этой теме нет новых непрочитанных сообщений. Клерки / Clerks (1994) DVDRip

77 | 5

700.24 МБ

В этой теме нет новых непрочитанных сообщений. Клерки 2 / Clerks II (2006) HD-DVDRip от HQCLUB

240 | 12

1.45 ГБ

В этой теме нет новых непрочитанных сообщений. Клерки 2 / Clerks II (2006) HDRip

360 | 8

743.15 МБ

В этой теме нет новых непрочитанных сообщений. Клерки / Clerks (1994) BDRip от HQCLUB

52 | 16

2.04 ГБ

В этой теме нет новых непрочитанных сообщений. Клерки / Clerks. (1994) HDRip от Scarabey | P

149 | 9

1.45 ГБ




Вы не можете начинать темы
Вы не можете отвечать на сообщения
Вы не можете редактировать свои сообщения
Вы не можете удалять свои сообщения
Вы не можете добавлять вложения

Перейти:  
Для Мосгорсуда, Роскомнадзора и рекламодателей: mosgorsud-torrent[собачка]yandex.ru
 Вход
ppkBB3cker v.2 © 2008-2014 @ PPK
[ Time : 2.855s | 14 Queries | GZIP : Off ]

Торрент трекер RUTOR.IN, Не можете зайти на rutor.org? Какой новый адрес рутор? Какое зеркало рутор? Не работает rutor.org и зеркала? Тогда наш торрент специально для вас. Rutor.in неофициальное зеркало rutor. В случае если у Вас заблокирован rutor или вдруг Вы не можете на него зайти, то Вы без труда сможете скачать бесплатно и без рекламы последние новинки кино, игр, сериалов и прочего у нас, на Rutor.in. Не нужно использовать прокси, чтобы зайти на рутор, достаточно воспользоваться нашим ресурсом. Все новые фильмы, игры, сериалы, книги и музыка за 2013 и 2014 годы через торрент бесплатно. Скачивайте фильмы в хорошем качестве, игры для пк, xbox, playstation без регистрации. У нас вы найдете новые Зарубежные сериалы и Русские сериалы 2013, 2014, 2015 годов. Оставайтесь с нами, качайте любимые фильмы, игры, сериалы, книги и музыку.