img image001 image001 image001 image001 image001 image001 image001 image001 image001 image001 image001 image001 image001 image001 image001

Planets Sun Sun Sun
Статистика раздачи
Автор: Снежана | Размер: 697.25 МБ | Добавлен: 27 июл 2013
Раздают: 17    Качают: 4
Скачать торрент
Скачать торрент
Описание торрента

СообщениеДобавлено: 27 июл 2013 



«We Will Make Everything Metal!»

Информация о фильме
Название: Металлопокалипсис
Оригинальное название: Metalocalypse
Год выхода: 2006
Жанр: анимационный сериал, черная комедия
Режиссер: Tommy Blacha, Brendon Small
В ролях: Брендон Смолл, Томми Блача, Марк Хэмилл, Виктор Брандт, Малкольм Макдауэлл и другие

Описание: В группе Dethklok играет 5 человек, все они больше ни на что не способны, играют они в стиле Death Metal, и почему-то, вероятно, своей эпохальностью – нравятся миллионам людей. Они обладают огромным состоянием, и хорошим адвокатом, который помогает им выкрутится из любой щепетильной ситуации, а таких бывает много – либо кого-то случайно пришибут или раздавят, или начинается массовая давка, в результате которой погибают сотни их поклонников. Но фанатов это не останавливает – доходит до того, что при входе на концерт, фанаты подписывают бумагу, смысл которой в том, что в случае смерти или увечий винить они будут только себя. Можно представить, насколько кровав и брутален этот сериал. Однако, группе мешает некое общество, называющее себя «трибунал», которое пытается избавить мир от этих сумасшедших чертей, но попытки тщетны. Dethklok настолько богаты и популярны, что их уже ничего не может остановить.



Страна: США
Продолжительность: ~ 00:11:00
Перевод: Профессиональный (многоголосый закадровый) - 2x2

Файл
Кодек: XviD
Качество: DVDRip
Видео: Xvid, 624x352, 23.98 fps, ~ 1100 kbps, 0.202 bit/px
Аудио [rus]: Dolby AC3, 48000 Hz, stereo, 192 kbps
Аудио [eng]: MPEG Audio Layer 3, 48000 Hz, stereo, VBR 128 kbps
Субтитры: Отсутствуют

Семпл


Episode 15 - Dethkids
Episode 16 - Religionklok
Episode 17 - Dethclown
Episode 18 - Girlfriendklok
Episode 19 - Dethstars
Episode 20 - The Metalocalypse Has Begun
General
Complete name : Metalocalypse s01e15 - Dethkids.avi
Format : AVI
Format/Info : Audio Video Interleave
File size : 116 MiB
Duration : 11mn 34s
Overall bit rate : 1 404 Kbps
Writing application : VirtualDubMod 1.5.10.2 (build 2540/release)
Writing library : VirtualDubMod build 2540/release

Video
ID : 0
Format : MPEG-4 Visual
Format profile : Advanced Simple@L5
Format settings, BVOP : Yes
Format settings, QPel : No
Format settings, GMC : No warppoints
Format settings, Matrix : Default (H.263)
Muxing mode : Packed bitstream
Codec ID : XVID
Codec ID/Hint : XviD
Duration : 11mn 34s
Bit rate : 1 064 Kbps
Width : 624 pixels
Height : 352 pixels
Display aspect ratio : 16:9
Frame rate : 23.976 fps
Color space : YUV
Chroma subsampling : 4:2:0
Bit depth : 8 bits
Scan type : Progressive
Bits/(Pixel*Frame) : 0.202
Stream size : 88.0 MiB (76%)
Writing library : XviD 1.1.2 (UTC 2006-11-01)

Audio #1
ID : 1
Format : AC-3
Format/Info : Audio Coding 3
Mode extension : CM (complete main)
Codec ID : 2000
Duration : 11mn 34s
Bit rate mode : Constant
Bit rate : 192 Kbps
Channel(s) : 2 channels
Channel positions : Front: L R
Sampling rate : 48.0 KHz
Bit depth : 16 bits
Stream size : 15.9 MiB (14%)
Alignment : Split accross interleaves
Interleave, duration : 42 ms (1.00 video frame)
Interleave, preload duration : 500 ms

Audio #2
ID : 2
Format : MPEG Audio
Format version : Version 1
Format profile : Layer 3
Mode : Joint stereo
Mode extension : MS Stereo
Codec ID : 55
Codec ID/Hint : MP3
Duration : 11mn 34s
Bit rate mode : Variable
Bit rate : 128 Kbps
Channel(s) : 2 channels
Sampling rate : 48.0 KHz
Stream size : 10.8 MiB (9%)
Alignment : Aligned on interleaves
Interleave, duration : 24 ms (0.58 video frame)
Interleave, preload duration : 358 ms
Writing library : LAME3.90.
Encoding settings : -m j -V 4 -q 2 -lowpass 17.6 --abr 128
Раздача ведётся путём добавления новых серий; при каждом добавлении создаётся новый торрент. Чтобы начать докачку новой серии, пользователям необходимо сделать следующее:
(1) остановить скачивание,
(2) удалить старый торрент у себя из клиента (старые серии удалять не надо),
(3) скачать новый торрент и запустить его у себя в клиенте вместо старого, при этом указать клиенту путь в старую папку куда и должно происходить скачивание новых серий.
Ваш клиент при этом должен произвести хеширование (проверку) старой папки (если не производит сам - помогите ему сделать это), и будет докачивать только те серии которых у вас ещё нет. Старые серии при этом не удаляются, а продолжают раздаваться!
Eсли вы уже удалили старые серии, то предотвратить повторную закачку старых серий можно, отжав галочку в соответствующих местах при запуске нового торрента. По возможности, желательно не удалять старые серии как можно дольше чтобы релизёр не столько продолжал раздавать старые серии, а смог сконцентрироваться на новых.




   Похожие торренты   Торрент   Размер 
В этой теме нет новых непрочитанных сообщений. Металлопокалипсис (Сезон 1-2, 1-38 серии из 38) / Metalocalypse (Джон Шнепп, Крис Приноски) [2006-2008, мультфильм, комедия, музыка, DVDRip] MVO/SUB

103 | 68

4.93 ГБ

В этой теме нет новых непрочитанных сообщений. Металлопокалипсис / Metalocalypse [02x01-02 из 20] (2008) DVDRip | 2x2

6 | 2

206.01 МБ

В этой теме нет новых непрочитанных сообщений. Металлопокалипсис / Metalocalypse [S02 + Бонусы] (2008) DVDRip

6 | 6

4.36 ГБ

В этой теме нет новых непрочитанных сообщений. Металлопокалипсис / Metalocalypse [S03] (2009-2010) DVDRip

10 | 3

2.74 ГБ

В этой теме нет новых непрочитанных сообщений. Металлопокалипсис / Metalocalypse [01x01-20] (2007) DVDRip

397 | 30

1.87 ГБ

В этой теме нет новых непрочитанных сообщений. Металлопокалипсис / Metalocalypse [S03-04] (2009-2012) BDRip | A

50 | 18

5.86 ГБ

В этой теме нет новых непрочитанных сообщений. Металлопокалипсис / Metalocalypse [S02] (2007-2008) WEB-DL 720p | A, P

61 | 19

7 ГБ




Вы не можете начинать темы
Вы не можете отвечать на сообщения
Вы не можете редактировать свои сообщения
Вы не можете удалять свои сообщения
Вы не можете добавлять вложения

Перейти:  
Для Мосгорсуда, Роскомнадзора и рекламодателей: mosgorsud-torrent[собачка]yandex.ru
 Вход
ppkBB3cker v.2 © 2008-2014 @ PPK
[ Time : 0.091s | 15 Queries | GZIP : Off ]

Торрент трекер RUTOR.IN, Не можете зайти на rutor.org? Какой новый адрес рутор? Какое зеркало рутор? Не работает rutor.org и зеркала? Тогда наш торрент специально для вас. Rutor.in неофициальное зеркало rutor. В случае если у Вас заблокирован rutor или вдруг Вы не можете на него зайти, то Вы без труда сможете скачать бесплатно и без рекламы последние новинки кино, игр, сериалов и прочего у нас, на Rutor.in. Не нужно использовать прокси, чтобы зайти на рутор, достаточно воспользоваться нашим ресурсом. Все новые фильмы, игры, сериалы, книги и музыка за 2013 и 2014 годы через торрент бесплатно. Скачивайте фильмы в хорошем качестве, игры для пк, xbox, playstation без регистрации. У нас вы найдете новые Зарубежные сериалы и Русские сериалы 2013, 2014, 2015 годов. Оставайтесь с нами, качайте любимые фильмы, игры, сериалы, книги и музыку.
cron