img image001 image001 image001 image001 image001 image001 image001 image001 image001 image001 image001 image001 image001 image001 image001

Planets Sun Sun Sun
Статистика раздачи
Автор: Снежана | Размер: 4.38 ГБ | Добавлен: 27 июл 2013
Раздают: 107    Качают: 8
Скачать торрент
Скачать торрент
Описание торрента

СообщениеДобавлено: 27 июл 2013 

#77

Информация о фильме
Название: Балто 3: Крылья перемен
Оригинальное название: Balto III: Wings of Change
Год выхода: 2004
Жанр: мультфильм, мюзикл, приключения, семейный
Режиссер: Фил Вайнштейн
В ролях: Шон Эстин, Джоди Бенсон, Кит Кэрредин, Билл Фагербакки, Чарльз Флайшер, Чарити Джеймс, Морис ЛаМарш, Кэти Нэджими, Дэвид Пэймер, Кевин Шон
Роли дублировали: Михаил Тихонов, Андрей Симанов, Наталья Казначеева, Светлана Старикова, Игорь Тарадайкин

О фильме:
Дело в том, что сани, которые служили универсальным средством передвижения на севере многие века, вытесняет странное крылатое устройство, которое легко может оставить упряжных собак «без работы». Ведь наступили новые времена! добраться до самых труднодоступных уголков на карте теперь можно при помощи самолёта.
Однако это совсем не по вкусу нашему старому знакомому Балто! Неунывающий герой решает устроить гонку-соревнование между упряжкой бывалых псов и опытным летчиком по имени Дьюк. Кто быстрей доставит почту: собаки или одномоторный биплан?
Ликующие псы добираются до финиша первыми: они смогли доказать свое превосходство над железной летающей птицей. Но Балто сразу понял: что-то случилось с Дюком и его самолетом! В компании с Маком и Люком Балто отправляется в рискованную спасательную экспедицию на помощь пропавшему летчику!

Страна: CША
Продолжительность: 01:18:08
Перевод:
1: Профессиональный (дублированный) Дубляж, R5
2: Авторский (одноголосый, закадровый) C.Визгунов

Файл
Кодек: Н.264
Качество: HDTVRip
Видео: 1424x1072 , 6855 Кбит/сек , 23,970 кадр/сек , 0.150 bit/pixel
Звук:
Audio: Russian: 48 kHz, AC3 Dolby Digital, 3/2 (L,C,R,l,r) + LFE ch, ~384.00 kbps avg |DUB, Дубляж, R5|
Audio: Russian: 48 kHz, AC3 Dolby Digital, 3/2 (L,C,R,l,r) + LFE ch, ~384.00 kbps avg |AVO, C.Визгунов|
Audio: English: 48 kHz, AC3 Dolby Digital, 3/2 (L,C,R,l,r) + LFE ch, ~384.00 kbps avg
Субтитры: Английские

Семпл
Общее
Уникальный идентификатор : 200005303222131347373345805704816206861 (0x96779EC8C7F0A5CD8A7801CACF73A40D)
Полное имя : D:торрентBaltoIII.2004.HDTVRip.mkv
Формат : Matroska
Версия формата : Version 2
Размер файла : 4,38 Гбайт
Продолжительность : 1 ч. 18 м.
Общий поток : 8017 Кбит/сек
Дата кодирования : UTC 2011-08-30 13:26:03
Программа кодирования : mkvmerge v4.9.1 ('Ich will') built on Jul 11 2011 23:53:15
Библиотека кодирования : libebml v1.2.1 + libmatroska v1.1.1

Видео
Идентификатор : 1
Формат : AVC
Формат/Информация : Advanced Video Codec
Профиль формата : High@L4.1
Параметр CABAC формата : Да
Параметр ReFrames формата : 5 кадров
Идентификатор кодека : V_MPEG4/ISO/AVC
Продолжительность : 1 ч. 18 м.
Битрейт : 6855 Кбит/сек
Ширина : 1424 пикс.
Высота : 1072 пикс.
Соотношение сторон : 4:3
Частота кадров : 29,970 кадр/сек
Цветовое пространство : YUV
Подвыборка цветности : 4:2:0
Битовая глубина : 8 бит
Тип развёртки : Прогрессивная
Бит/(Пиксели*Кадры) : 0.150
Размер потока : 3,66 Гбайт (84%)
Заголовок : BALTO III
Библиотека кодирования : x264 core 116 r2074 2641b9e
Настройки программы : cabac=1 / ref=5 / deblock=1:1:1 / analyse=0x3:0x113 / me=umh / subme=9 / psy=1 / psy_rd=0.40:0.00 / mixed_ref=1 / me_range=32 / chroma_me=1 / trellis=1 / 8x8dct=1 / cqm=0 / deadzone=21,11 / fast_pskip=0 / chroma_qp_offset=-2 / threads=6 / sliced_threads=0 / nr=0 / decimate=1 / interlaced=0 / bluray_compat=0 / constrained_intra=0 / bframes=6 / b_pyramid=2 / b_adapt=2 / b_bias=0 / direct=3 / weightb=1 / open_gop=0 / weightp=2 / keyint=250 / keyint_min=25 / scenecut=40 / intra_refresh=0 / rc_lookahead=50 / rc=2pass / mbtree=1 / bitrate=6855 / ratetol=1.0 / qcomp=0.60 / qpmin=0 / qpmax=69 / qpstep=4 / cplxblur=20.0 / qblur=0.5 / ip_ratio=1.40 / aq=1:0.60
Язык : English

Аудио #1
Идентификатор : 2
Формат : AC-3
Формат/Информация : Audio Coding 3
Расширение режима : CM (complete main)
Идентификатор кодека : A_AC3
Продолжительность : 1 ч. 18 м.
Вид битрейта : Постоянный
Битрейт : 384 Кбит/сек
Каналы : 6 каналов
Расположение каналов : Front: L C R, Side: L R, LFE
Частота : 48,0 КГц
Битовая глубина : 16 бит
Метод сжатия : С потерями
Задержка видео : 18 мс.
Размер потока : 215 Мбайт (5%)
Заголовок : Dub,R5
Язык : Russian

Аудио #2
Идентификатор : 3
Формат : AC-3
Формат/Информация : Audio Coding 3
Расширение режима : CM (complete main)
Идентификатор кодека : A_AC3
Продолжительность : 1 ч. 18 м.
Вид битрейта : Постоянный
Битрейт : 384 Кбит/сек
Каналы : 6 каналов
Расположение каналов : Front: L C R, Side: L R, LFE
Частота : 48,0 КГц
Битовая глубина : 16 бит
Метод сжатия : С потерями
Задержка видео : 18 мс.
Размер потока : 215 Мбайт (5%)
Заголовок : AVO, C.Визгунов
Язык : Russian

Аудио #3
Идентификатор : 4
Формат : AC-3
Формат/Информация : Audio Coding 3
Расширение режима : CM (complete main)
Идентификатор кодека : A_AC3
Продолжительность : 1 ч. 18 м.
Вид битрейта : Постоянный
Битрейт : 384 Кбит/сек
Каналы : 6 каналов
Расположение каналов : Front: L C R, Side: L R, LFE
Частота : 48,0 КГц
Битовая глубина : 16 бит
Метод сжатия : С потерями
Задержка видео : 18 мс.
Размер потока : 215 Мбайт (5%)
Язык : English

Текст
Идентификатор : 5
Формат : VobSub
Режим смешивания : zlib
Идентификатор кодека : S_VOBSUB
Идентификатор кодека/Информация : The same subtitle format used on DVDs
Язык : English




Релиз от:



   Похожие торренты   Торрент   Размер 
В этой теме нет новых непрочитанных сообщений. Балто 3: Крылья перемен / Balto III: Wings of Change (2004) HDTVRip от Youtracker | D

218 | 12

744.7 МБ

В этой теме нет новых непрочитанных сообщений. Балто 3: Крылья перемен / Balto III: Wings of Change (2004) DVDRip от ExKinoRay

186 | 10

1.09 ГБ

В этой теме нет новых непрочитанных сообщений. Балто / Balto (1995) HDTVRip от Freeisland

120 | 13

4.37 ГБ

В этой теме нет новых непрочитанных сообщений. Балто 2: В поисках волка / Balto: Wolf Quest (2002) HDTVRip от Freeisland

45 | 11

4.37 ГБ

В этой теме нет новых непрочитанных сообщений. Балто / Balto (1995-2004) DVDRip от MediaClub | КПК

123 | 21

1018.89 МБ

В этой теме нет новых непрочитанных сообщений. Балто: Трилогия / Balto: Trilogy (1995-2004 ) DVDRip

199 | 41

4.1 ГБ

В этой теме нет новых непрочитанных сообщений. Балто / Balto (1995) HDTVRip от Youtracker

175 | 27

744.88 МБ




Вы не можете начинать темы
Вы не можете отвечать на сообщения
Вы не можете редактировать свои сообщения
Вы не можете удалять свои сообщения
Вы не можете добавлять вложения

Перейти:  
Для Мосгорсуда, Роскомнадзора и рекламодателей: mosgorsud-torrent[собачка]yandex.ru
 Вход
ppkBB3cker v.2 © 2008-2014 @ PPK
[ Time : 0.043s | 15 Queries | GZIP : Off ]

cron