img image001 image001 image001 image001 image001 image001 image001 image001 image001 image001 image001 image001 image001 image001 image001

Planets Sun Sun Sun
Статистика раздачи
Автор: Снежана | Размер: 1.25 ГБ | Добавлен: 27 июл 2013
Раздают: 1    Качают: 1
Скачать торрент
Скачать торрент
Описание торрента

СообщениеДобавлено: 27 июл 2013 

#77

Информация о фильме
Название: Мир после мира
Оригинальное название: afterworld
Год выхода: 2007
Жанр: Анимационный, Научная фантастика
Режиссер: Стэн Рогов / Stan Rogow
В ролях: Роурк Критчлоу / Roark Critchlow, Тара Платт / Tara Platt, Тоня Корнелисс / Tonya Cornelisse, Грэм Сибли / Graham Sibley, Стефани Уайнд / Stephanie Wiand

О фильме:
После прилёта в Нью-Йорк в командировку, Рассел Шумакер просыпается и обнаруживает, что все электронные устройства не работают и человечества исчезло. Ведомый необходимостью узнать истину и решив вернуться к своей семье, он отправляется в путешествие домой, в Сиэтл. Все происходящие с ним события он записывает в своем дневнике.
История встреч со странными новыми сообществами оставшихся в живых. По пути он также пытается разгадать тайну того, что стало причиной этого глобального события, которое выжившие называют "Отключением"...
Страна: США
Продолжительность: 21:00~23:00
Перевод: Профессиональный (дублированный)

Файл
Кодек: AVI
Качество: SATRip
Видео: DivX, 640x368, 29.97 fps, ~1000 kbps
Звук: MPEG Audio Layer 3, 44100Hz, stereo, 128Kbps

General
Complete name : F:Afterworld.Rus_TVe01.avi
Format : AVI
Format/Info : Audio Video Interleave
File size : 186 MiB
Duration : 22mn 48s
Overall bit rate : 1 141 Kbps
Writing library : VirtualDub-MPEG2 build 24458/release

Video
ID : 0
Format : MPEG-4 Visual
Format settings, BVOP : 1
Format settings, QPel : No
Format settings, GMC : No warppoints
Format settings, Matrix : Default (H.263)
Muxing mode : Packed bitstream
Codec ID : DX50
Codec ID/Hint : DivX 5
Duration : 22mn 48s
Bit rate : 1 001 Kbps
Width : 640 pixels
Height : 360 pixels
Display aspect ratio : 16:9
Frame rate : 29.950 fps
Color space : YUV
Chroma subsampling : 4:2:0
Bit depth : 8 bits
Scan type : Progressive
Compression mode : Lossy
Bits/(Pixel*Frame) : 0.145
Stream size : 163 MiB (88%)
Writing library : DivX 5.1.1 (Maupiti) (UTC 2003-11-19)

Audio
ID : 1
Format : MPEG Audio
Format version : Version 1
Format profile : Layer 3
Mode : Joint stereo
Mode extension : MS Stereo
Codec ID : 55
Codec ID/Hint : MP3
Duration : 22mn 48s
Bit rate mode : Constant
Bit rate : 128 Kbps
Channel(s) : 2 channels
Sampling rate : 44.1 KHz
Compression mode : Lossy
Delay relative to video : 25ms
Stream size : 20.9 MiB (11%)
Alignment : Split accross interleaves
Interleave, duration : 33 ms (1.00 video frame)
Interleave, preload duration : 500 ms








   Похожие торренты   Торрент   Размер 
В этой теме нет новых непрочитанных сообщений. Мир после мира / Afterworld [01-13 из 13] (2007) SATRip | D

61 | 20

2.32 ГБ

В этой теме нет новых непрочитанных сообщений. National Geographic: Самые опасные животные мира: Амазония / World's Deadliest Animals: Amazon (2007) SATRip

4 | 9

551.47 МБ

В этой теме нет новых непрочитанных сообщений. National Geographic : Самые опасные животные мира: Юго-Восточная Азия / World's Deadliest Animals: Asia Pacific (2007) SATRip

0 | 2

551.45 МБ

В этой теме нет новых непрочитанных сообщений. National Geographic: Самые опасные животные мира. Континентальная Азия / World's Deadliest Animals: Asia. Land of Extremes (2007) SATRip

0 | 2

550.9 МБ

В этой теме нет новых непрочитанных сообщений. Два мира / The Two Worlds (2007) PC

41 | 7

2.35 ГБ

В этой теме нет новых непрочитанных сообщений. Штурмовые винтовки мира (2007) PDF

8 | 44

6.91 МБ

В этой теме нет новых непрочитанных сообщений. VA - Гармония Мира [4 CD] (2007) FLAC

0 | 2

1.3 ГБ




Вы не можете начинать темы
Вы не можете отвечать на сообщения
Вы не можете редактировать свои сообщения
Вы не можете удалять свои сообщения
Вы не можете добавлять вложения

Перейти:  
Для Мосгорсуда, Роскомнадзора и рекламодателей: mosgorsud-torrent[собачка]yandex.ru
 Вход
ppkBB3cker v.2 © 2008-2014 @ PPK
[ Time : 0.056s | 14 Queries | GZIP : Off ]

Торрент трекер RUTOR.IN, Не можете зайти на rutor.org? Какой новый адрес рутор? Какое зеркало рутор? Не работает rutor.org и зеркала? Тогда наш торрент специально для вас. Rutor.in неофициальное зеркало rutor. В случае если у Вас заблокирован rutor или вдруг Вы не можете на него зайти, то Вы без труда сможете скачать бесплатно и без рекламы последние новинки кино, игр, сериалов и прочего у нас, на Rutor.in. Не нужно использовать прокси, чтобы зайти на рутор, достаточно воспользоваться нашим ресурсом. Все новые фильмы, игры, сериалы, книги и музыка за 2013 и 2014 годы через торрент бесплатно. Скачивайте фильмы в хорошем качестве, игры для пк, xbox, playstation без регистрации. У нас вы найдете новые Зарубежные сериалы и Русские сериалы 2013, 2014, 2015 годов. Оставайтесь с нами, качайте любимые фильмы, игры, сериалы, книги и музыку.