img image001 image001 image001 image001 image001 image001 image001 image001 image001 image001 image001 image001 image001 image001 image001

Planets Sun Sun Sun
Статистика раздачи
Автор: Снежана | Размер: 4.38 ГБ | Добавлен: 27 июл 2013
Раздают: 34    Качают: 8
Скачать торрент
Скачать торрент
Описание торрента

СообщениеДобавлено: 27 июл 2013 

#77

Информация о фильме
Название: Золушка
Оригинальное название: Cinderella
Год выхода: 1950
Жанр: мультфильм, мюзикл, фэнтези, мелодрама, семейный
Режиссер: Клайд Джероними, Уилфред Джексон, Хэмильтон Ласки
В ролях: Илен Вудс, Хелен Стэнли, Элинор Одли, Луис Ван Рутен, Верна Фелтон, Дон Барклай, Клер Дю Бри, Рода Уильямс, Джеймс МакДональд, Люсиль Блисс

О фильме:
Золушка - бедная сиротка, которую злая мачеха и ее вздорные дочки, заставляют тяжко работать с утра до ночи. Она так хочет попасть на королевский бал. На помощь бедняжке приходит Добрая фея! Силой волшебства она наделяет Золушку роскошной каретой, чудесным платьем и необыкновенными хрустальными башмачками.

Страна: США
Продолжительность: 01:15:06
Перевод: Профессиональный (полное дублирование, многоголосый закадровый, одноголосый закадровый)

Файл
Кодек: Н.264
Качество: HDTVRip
Видео: 1440 x 1072 (AR 4:3) , 6350 Кбит/сек , 23,976 кадр/сек , 0.172 bit/pixel
Звук:
Аудио №1: Русский Dolby Digital Audio 5.1, 48 kHz, DN -4dB, ~448 kbps – профессиональный (полное дублирование) |R1 "Superbit - СРИ"|
Аудио №2: Русский Dolby Digital Audio 5.1, 48 kHz, DN -4dB, ~448 kbps – профессиональный (многоголосый закадровый) |R1 "Superbit - СРИ"|
Аудио №3: Русский Dolby Digital Audio 2.0, 48 kHz, DN -4dB, ~192 kbps – профессиональный (многоголосый закадровый) |R5|
Аудио №4: Русский Dolby Digital Audio 5.1, 48 kHz, DN -4dB, ~448 kbps – авторский (одноголосый закадровый) |Алексей Михалёв|
Аудио №5: Английский Dolby Digital Audio 5.1, 48 kHz, ~448 kbps
Субтитры: Русские (R5), Английские

Семпл
Общее
Уникальный идентификатор : 232618817793446201878924534945510959383 (0xAF00C132D0CFF679BA802009BC35A917)
Полное имя : D:торрентZolushka.1950.AVC.HDTVRip.mkv
Формат : Matroska
Версия формата : Version 2
Размер файла : 4,38 Гбайт
Продолжительность : 1 ч. 15 м.
Общий поток : 8345 Кбит/сек
Дата кодирования : UTC 2011-09-02 10:49:01
Программа кодирования : mkvmerge v4.9.1 ('Ich will') built on Jul 11 2011 23:53:15
Библиотека кодирования : libebml v1.2.1 + libmatroska v1.1.1

Видео
Идентификатор : 1
Формат : AVC
Формат/Информация : Advanced Video Codec
Профиль формата : High@L4.1
Параметр CABAC формата : Да
Параметр ReFrames формата : 5 кадров
Идентификатор кодека : V_MPEG4/ISO/AVC
Продолжительность : 1 ч. 15 м.
Битрейт : 6350 Кбит/сек
Ширина : 1440 пикс.
Высота : 1072 пикс.
Соотношение сторон : 4:3
Частота кадров : 23,976 кадр/сек
Цветовое пространство : YUV
Подвыборка цветности : 4:2:0
Битовая глубина : 8 бит
Тип развёртки : Прогрессивная
Бит/(Пиксели*Кадры) : 0.172
Размер потока : 3,25 Гбайт (74%)
Библиотека кодирования : x264 core 116 r2074 2641b9e
Настройки программы : cabac=1 / ref=5 / deblock=1:1:1 / analyse=0x3:0x113 / me=umh / subme=8 / psy=1 / psy_rd=1.00:0.15 / mixed_ref=1 / me_range=32 / chroma_me=1 / trellis=1 / 8x8dct=1 / cqm=0 / deadzone=21,11 / fast_pskip=0 / chroma_qp_offset=-3 / threads=6 / sliced_threads=0 / nr=0 / decimate=1 / interlaced=0 / bluray_compat=0 / constrained_intra=0 / bframes=4 / b_pyramid=2 / b_adapt=2 / b_bias=0 / direct=3 / weightb=1 / open_gop=0 / weightp=2 / keyint=250 / keyint_min=23 / scenecut=40 / intra_refresh=0 / rc_lookahead=50 / rc=2pass / mbtree=1 / bitrate=6350 / ratetol=1.0 / qcomp=0.60 / qpmin=0 / qpmax=69 / qpstep=4 / cplxblur=20.0 / qblur=0.5 / ip_ratio=1.40 / aq=1:1.00
Язык : English

Аудио #1
Идентификатор : 2
Формат : AC-3
Формат/Информация : Audio Coding 3
Расширение режима : CM (complete main)
Идентификатор кодека : A_AC3
Продолжительность : 1 ч. 15 м.
Вид битрейта : Постоянный
Битрейт : 448 Кбит/сек
Каналы : 6 каналов
Расположение каналов : Front: L C R, Side: L R, LFE
Частота : 48,0 КГц
Битовая глубина : 16 бит
Метод сжатия : С потерями
Размер потока : 241 Мбайт (5%)
Заголовок : Dub"Superbit - СРИ"
Язык : Russian

Аудио #2
Идентификатор : 3
Формат : AC-3
Формат/Информация : Audio Coding 3
Расширение режима : CM (complete main)
Идентификатор кодека : A_AC3
Продолжительность : 1 ч. 15 м.
Вид битрейта : Постоянный
Битрейт : 448 Кбит/сек
Каналы : 6 каналов
Расположение каналов : Front: L C R, Side: L R, LFE
Частота : 48,0 КГц
Битовая глубина : 16 бит
Метод сжатия : С потерями
Размер потока : 241 Мбайт (5%)
Заголовок : MVO"Superbit - СРИ"
Язык : Russian

Аудио #3
Идентификатор : 4
Формат : AC-3
Формат/Информация : Audio Coding 3
Расширение режима : CM (complete main)
Идентификатор кодека : A_AC3
Продолжительность : 1 ч. 15 м.
Вид битрейта : Постоянный
Битрейт : 192 Кбит/сек
Каналы : 2 канала
Расположение каналов : Front: L R
Частота : 48,0 КГц
Битовая глубина : 16 бит
Метод сжатия : С потерями
Размер потока : 103 Мбайт (2%)
Заголовок : MVO R5
Язык : Russian

Аудио #4
Идентификатор : 5
Формат : AC-3
Формат/Информация : Audio Coding 3
Расширение режима : CM (complete main)
Идентификатор кодека : A_AC3
Продолжительность : 1 ч. 15 м.
Вид битрейта : Постоянный
Битрейт : 448 Кбит/сек
Каналы : 6 каналов
Расположение каналов : Front: L C R, Side: L R, LFE
Частота : 48,0 КГц
Битовая глубина : 16 бит
Метод сжатия : С потерями
Размер потока : 241 Мбайт (5%)
Заголовок : AO Алексей Михалёв
Язык : Russian

Аудио #5
Идентификатор : 6
Формат : AC-3
Формат/Информация : Audio Coding 3
Расширение режима : CM (complete main)
Идентификатор кодека : A_AC3
Продолжительность : 1 ч. 15 м.
Вид битрейта : Постоянный
Битрейт : 448 Кбит/сек
Каналы : 6 каналов
Расположение каналов : Front: L C R, Side: L R, LFE
Частота : 48,0 КГц
Битовая глубина : 16 бит
Метод сжатия : С потерями
Размер потока : 241 Мбайт (5%)
Язык : English

Текст #1
Идентификатор : 7
Формат : VobSub
Режим смешивания : zlib
Идентификатор кодека : S_VOBSUB
Идентификатор кодека/Информация : The same subtitle format used on DVDs
Заголовок : R5
Язык : Russian

Текст #2
Идентификатор : 8
Формат : VobSub
Режим смешивания : zlib
Идентификатор кодека : S_VOBSUB
Идентификатор кодека/Информация : The same subtitle format used on DVDs
Язык : English

Меню
00:00:00.000 : en:00:00:00.000
00:01:23.000 : en:00:01:23.000
00:04:20.000 : en:00:04:20.000
00:07:36.000 : en:00:07:36.000
00:10:13.000 : en:00:10:13.000
00:13:26.000 : en:00:13:26.000
00:17:35.000 : en:00:17:35.000
00:22:03.000 : en:00:22:03.000
00:23:30.000 : en:00:23:30.000
00:26:03.000 : en:00:26:03.000
00:27:50.000 : en:00:27:50.000
00:30:07.000 : en:00:30:07.000
00:32:36.000 : en:00:32:36.000
00:36:47.000 : en:00:36:47.000
00:38:21.000 : en:00:38:21.000
00:41:34.000 : en:00:41:34.000
00:44:10.000 : en:00:44:10.000
00:48:21.000 : en:00:48:21.000
00:51:15.000 : en:00:51:15.000
00:56:54.000 : en:00:56:54.000
01:00:39.000 : en:01:00:39.000
01:04:44.000 : en:01:04:44.000
01:07:57.000 : en:01:07:57.000
01:11:50.000 : en:01:11:50.000




Релиз от:



   Похожие торренты   Торрент   Размер 
В этой теме нет новых непрочитанных сообщений. Золушка / Cinderella (1950) HDTVRip 1080p

20 | 3

5 ГБ

В этой теме нет новых непрочитанных сообщений. Золушка / Cinderella (1950) BDRip HEVC 1080p | D

7 | 0

1.97 ГБ

В этой теме нет новых непрочитанных сообщений. Золушка / Cinderella (1950) BDRip 1080p от R.G. HD-Films | 60 fps

92 | 19

6.75 ГБ

В этой теме нет новых непрочитанных сообщений. Золушка / Cinderella (1950) HDTVRip-AVC от Enigma

86 | 12

2.09 ГБ

В этой теме нет новых непрочитанных сообщений. Золушка / Cinderella (1950) HDTVRip 720p

97 | 4

2.91 ГБ

В этой теме нет новых непрочитанных сообщений. Золушка: Трилогия / Cinderella: Trilogy (1950-2007) BDRip 1080p

517 | 64

13.14 ГБ

В этой теме нет новых непрочитанных сообщений. Золушка / Cinderella (1950) BDRip-AVC от ExKinoRay | D, P, A1

49 | 3

3.01 ГБ




Вы не можете начинать темы
Вы не можете отвечать на сообщения
Вы не можете редактировать свои сообщения
Вы не можете удалять свои сообщения
Вы не можете добавлять вложения

Перейти:  
Для Мосгорсуда, Роскомнадзора и рекламодателей: mosgorsud-torrent[собачка]yandex.ru
 Вход
ppkBB3cker v.2 © 2008-2014 @ PPK
[ Time : 0.039s | 15 Queries | GZIP : Off ]

Торрент трекер RUTOR.IN, Не можете зайти на rutor.org? Какой новый адрес рутор? Какое зеркало рутор? Не работает rutor.org и зеркала? Тогда наш торрент специально для вас. Rutor.in неофициальное зеркало rutor. В случае если у Вас заблокирован rutor или вдруг Вы не можете на него зайти, то Вы без труда сможете скачать бесплатно и без рекламы последние новинки кино, игр, сериалов и прочего у нас, на Rutor.in. Не нужно использовать прокси, чтобы зайти на рутор, достаточно воспользоваться нашим ресурсом. Все новые фильмы, игры, сериалы, книги и музыка за 2013 и 2014 годы через торрент бесплатно. Скачивайте фильмы в хорошем качестве, игры для пк, xbox, playstation без регистрации. У нас вы найдете новые Зарубежные сериалы и Русские сериалы 2013, 2014, 2015 годов. Оставайтесь с нами, качайте любимые фильмы, игры, сериалы, книги и музыку.
cron