img image001 image001 image001 image001 image001 image001 image001 image001 image001 image001 image001 image001 image001 image001 image001

Planets Sun Sun Sun
Статистика раздачи
Автор: Снежана | Размер: 4.38 ГБ | Добавлен: 27 июл 2013
Раздают: 333    Качают: 18
Скачать торрент
Скачать торрент
Описание торрента

СообщениеДобавлено: 27 июл 2013 

#77

Информация о фильме
Название: Белоснежка и семь гномов
Оригинальное название: Snow White and the Seven Dwarfs
Год выхода: 1937
Жанр: мультфильм, мюзикл, фэнтези, мелодрама, семейный
Режиссер: Уильям Коттрелл, Дэвид Хэнд, Уилфред Джексон
В ролях: Рой Этвелл, Стюарт Бьюкэнэн, Адриана Каселотти, Эдди Коллинз, Пинто Колвиг, Мэрион Дарлингтон, Билли Гилберт, Отис Хэрлан, Люсиль Ла Верн, Джеймс МакДональд, Scotty Mattraw, Морони Олсен, Гарри Стокуэлл

О фильме:
Экранизация знаменитой немецкой сказки братьев Гримм о Белоснежке, жившей в замке со злой мачехой-королевой, которая очень гордилась своей красотой. Узнав от волшебного зеркальца, что Белоснежка стала самой прекрасной девушкой на свете, завистница решила погубить прелестную падчерицу. Но бедная девушка не погибла в лесу, а наоборот, встретила там настоящих друзей — забавных семерых гномов: Профессора, Ворчуна, Весельчака, Скромника, Чихоню, Соню и Молчуна…


Страна: США
Продолжительность: 01:23:11
Перевод: Дублированный

Файл
Кодек: Н.264
Качество: BDRip 1080p
Видео: 1424x1072 (4:3), 6240 Кбит/сек , 23,976 кадр/сек , 0.170 bit/pixel
Звук:
1: 48 kHz, AC3 Dolby Digital, 3/2 (L,C,R,l,r) + LFE ch, 640 kbps avg(Рус)
2: 48 kHz, AC3 Dolby Digital, 3/2 (L,C,R,l,r) + LFE ch, 640 kbps avg(Англ)
Субтитры: Русские, Английские

Семпл
Общее
Уникальный идентификатор : 201879035813408842879114663154638218342 (0x97E07CEEFD962363B4821B4433A56466)
Полное имя : D:торрентBelosnezhka.i.7.gnomov.1937.Dub.BDRip1080p.mkv
Формат : Matroska
Версия формата : Version 2
Размер файла : 4,38 Гбайт
Продолжительность : 1 ч. 23 м.
Общий поток : 7532 Кбит/сек
Дата кодирования : UTC 2011-09-04 17:46:27
Программа кодирования : mkvmerge v4.9.1 ('Ich will') сборка от Jul 11 2011 23:53:15
Библиотека кодирования : libebml v1.2.1 + libmatroska v1.1.1

Видео
Идентификатор : 1
Формат : AVC
Формат/Информация : Advanced Video Codec
Профиль формата : High@L4.1
Параметр CABAC формата : Да
Параметр ReFrames формата : 5 кадров
Идентификатор кодека : V_MPEG4/ISO/AVC
Продолжительность : 1 ч. 23 м.
Битрейт : 6240 Кбит/сек
Ширина : 1424 пикс.
Высота : 1072 пикс.
Соотношение сторон : 4:3
Частота кадров : 23,976 кадр/сек
Цветовое пространство : YUV
Подвыборка цветности : 4:2:0
Битовая глубина : 8 бит
Тип развёртки : Прогрессивная
Бит/(Пиксели*Кадры) : 0.170
Размер потока : 3,55 Гбайт (81%)
Библиотека кодирования : x264 core 116 r2074 2641b9e
Настройки программы : cabac=1 / ref=5 / deblock=1:1:1 / analyse=0x3:0x113 / me=umh / subme=9 / psy=1 / psy_rd=0.40:0.00 / mixed_ref=1 / me_range=32 / chroma_me=1 / trellis=1 / 8x8dct=1 / cqm=0 / deadzone=21,11 / fast_pskip=0 / chroma_qp_offset=-2 / threads=6 / sliced_threads=0 / nr=0 / decimate=1 / interlaced=0 / bluray_compat=0 / constrained_intra=0 / bframes=5 / b_pyramid=2 / b_adapt=2 / b_bias=0 / direct=3 / weightb=1 / open_gop=0 / weightp=2 / keyint=250 / keyint_min=23 / scenecut=40 / intra_refresh=0 / rc_lookahead=50 / rc=2pass / mbtree=1 / bitrate=6240 / ratetol=1.0 / qcomp=0.60 / qpmin=0 / qpmax=69 / qpstep=4 / cplxblur=20.0 / qblur=0.5 / ip_ratio=1.40 / aq=1:0.60
Язык : English

Аудио #1
Идентификатор : 2
Формат : AC-3
Формат/Информация : Audio Coding 3
Расширение режима : CM (complete main)
Идентификатор кодека : A_AC3
Продолжительность : 1 ч. 23 м.
Вид битрейта : Постоянный
Битрейт : 640 Кбит/сек
Каналы : 6 каналов
Расположение каналов : Front: L C R, Side: L R, LFE
Частота : 48,0 КГц
Битовая глубина : 16 бит
Метод сжатия : С потерями
Размер потока : 381 Мбайт (8%)
Язык : Russian

Аудио #2
Идентификатор : 3
Формат : AC-3
Формат/Информация : Audio Coding 3
Расширение режима : CM (complete main)
Идентификатор кодека : A_AC3
Продолжительность : 1 ч. 23 м.
Вид битрейта : Постоянный
Битрейт : 640 Кбит/сек
Каналы : 6 каналов
Расположение каналов : Front: L C R, Side: L R, LFE
Частота : 48,0 КГц
Битовая глубина : 16 бит
Метод сжатия : С потерями
Размер потока : 381 Мбайт (8%)
Язык : English

Текст #1
Идентификатор : 4
Формат : VobSub
Идентификатор кодека : S_VOBSUB
Идентификатор кодека/Информация : The same subtitle format used on DVDs
Язык : Russian

Текст #2
Идентификатор : 5
Формат : VobSub
Идентификатор кодека : S_VOBSUB
Идентификатор кодека/Информация : The same subtitle format used on DVDs
Язык : English

Текст #3
Идентификатор : 6
Формат : VobSub
Идентификатор кодека : S_VOBSUB
Идентификатор кодека/Информация : The same subtitle format used on DVDs
Язык : Russian

Меню
00:00:00.000 : en:00:00:00.000
00:01:22.708 : en:00:01:22.708
00:02:11.965 : en:00:02:11.965
00:03:35.507 : en:00:03:35.507
00:05:25.825 : en:00:05:25.825
00:07:00.045 : en:00:07:00.045
00:09:11.426 : en:00:09:11.426
00:11:34.736 : en:00:11:34.736
00:14:56.979 : en:00:14:56.979
00:17:38.349 : en:00:17:38.349
00:21:25.284 : en:00:21:25.284
00:24:09.156 : en:00:24:09.156
00:25:29.820 : en:00:25:29.820
00:34:55.427 : en:00:34:55.427
00:42:47.398 : en:00:42:47.398
00:47:49.408 : en:00:47:49.408
00:49:15.828 : en:00:49:15.828
00:52:02.119 : en:00:52:02.119
00:56:49.448 : en:00:56:49.448
00:58:53.321 : en:00:58:53.321
01:02:38.797 : en:01:02:38.797
01:05:40.937 : en:01:05:40.937
01:08:24.559 : en:01:08:24.559
01:11:41.297 : en:01:11:41.297
01:14:08.903 : en:01:14:08.903
01:17:42.992 : en:01:17:42.992
01:20:27.614 : en:01:20:27.614




Релиз от:



   Похожие торренты   Торрент   Размер 
В этой теме нет новых непрочитанных сообщений. Белоснежка и семь гномов / Snow White and the Seven Dwarfs (1937) BDRip 1080p | 60 fps

83 | 17

6.07 ГБ

В этой теме нет новых непрочитанных сообщений. Белоснежка и семь гномов / Snow White and the Seven Dwarfs (1937) BDRip HEVC 1080p | D

13 | 0

4.41 ГБ

В этой теме нет новых непрочитанных сообщений. Белоснежка и семь гномов / Snow White and the Seven Dwarfs (1937) BDRip от HQ-ViDEO | D

950 | 32

1.46 ГБ

В этой теме нет новых непрочитанных сообщений. Белоснежка и семь гномов / Snow White and the Seven Dwarfs (1937) BDRip 720p

17 | 2

4.6 ГБ

В этой теме нет новых непрочитанных сообщений. Белоснежка и семь гномов / Snow White and the Seven Dwarfs (1937) BDRip от HQCLUB

98 | 4

1.72 ГБ

В этой теме нет новых непрочитанных сообщений. Белоснежка и семь гномов / Snow White and the Seven Dwarfs (1937) BDRip-AVC от 0ptimus | D

649 | 10

1.51 ГБ

В этой теме нет новых непрочитанных сообщений. Белоснежка и семь гномов / Snow White and the Seven Dwarfs (1937) BDRip от MediaClub | КПК

249 | 11

375.31 МБ




Вы не можете начинать темы
Вы не можете отвечать на сообщения
Вы не можете редактировать свои сообщения
Вы не можете удалять свои сообщения
Вы не можете добавлять вложения

Перейти:  
Для Мосгорсуда, Роскомнадзора и рекламодателей: mosgorsud-torrent[собачка]yandex.ru
 Вход
ppkBB3cker v.2 © 2008-2014 @ PPK
[ Time : 0.038s | 15 Queries | GZIP : Off ]

Торрент трекер RUTOR.IN, Не можете зайти на rutor.org? Какой новый адрес рутор? Какое зеркало рутор? Не работает rutor.org и зеркала? Тогда наш торрент специально для вас. Rutor.in неофициальное зеркало rutor. В случае если у Вас заблокирован rutor или вдруг Вы не можете на него зайти, то Вы без труда сможете скачать бесплатно и без рекламы последние новинки кино, игр, сериалов и прочего у нас, на Rutor.in. Не нужно использовать прокси, чтобы зайти на рутор, достаточно воспользоваться нашим ресурсом. Все новые фильмы, игры, сериалы, книги и музыка за 2013 и 2014 годы через торрент бесплатно. Скачивайте фильмы в хорошем качестве, игры для пк, xbox, playstation без регистрации. У нас вы найдете новые Зарубежные сериалы и Русские сериалы 2013, 2014, 2015 годов. Оставайтесь с нами, качайте любимые фильмы, игры, сериалы, книги и музыку.
cron