img image001 image001 image001 image001 image001 image001 image001 image001 image001 image001 image001 image001 image001 image001 image001

Planets Sun Sun Sun
Статистика раздачи
Автор: Снежана | Размер: 343.46 МБ | Добавлен: 27 июл 2013
Раздают: 31    Качают: 9
Скачать торрент
Скачать торрент
Описание торрента

СообщениеДобавлено: 27 июл 2013 

#77


Название: Следствие ведут Колобки (4 серии)
Год выхода: 1986-1987
Жанр: Комедия, мультфильм, короткометражка
Режиссер: Александр Татарский, Игорь Ковалев
Роли озвучивали: Леонид Броневой, Михаил Евдокимов, Алексей Птицын, С. Федосов

О фильме: Из городского зоопарка иностранцем Карбофосом украден редкий полосатый слон по кличке Балдахин. За расследование берутся знаменитые братья Колобки. По справке, полученной обманным путем в магазине, Карбофос пытается вылететь со слоном на самолёте, однако братья Колобки успевают переманить слона рыбьим жиром, а слуга иностранца неожиданно предаёт своего хозяина и расстреливает Карбофоса из секретного оружия, стреляющего присосками с воздушными шариками на ниточках.



Выпущено: CCCP / Творческое объединение «Экран»
Продолжительность: 00:20:35
Язык: Русский


Кодек: H264/High@L4.1
Качество видео: DVDRip-AVC
Формат: MPEG-4
Видео: 768x576, 4:3, 25 fps, ~2168 kbps avg, 0.19 bit/pixel
Аудио: AAC-LC, 48 kHz, 2 ch, VBR





Формат : MPEG-4
Профиль формата : Base Media
Идентификатор кодека : isom
Размер файла : 343 Мбайт
Продолжительность : 20 м.
Общий поток : 2333 Кбит/сек
Программа кодирования : Lavf53.6.0
Видео
Идентификатор : 1
Формат : AVC
Формат/Информация : Advanced Video Codec
Профиль формата : High@L4.1
Параметр CABAC формата : Да
Параметр ReFrames формата : 8 кадров
Идентификатор кодека : avc1
Идентификатор кодека/Информация : Advanced Video Coding
Продолжительность : 20 м.
Битрейт : 2168 Кбит/сек
Ширина : 768 пикселей
Высота : 576 пикселей
Соотношение сторон : 4:3
Режим частоты кадров : Постоянный
Частота кадров : 25,000 кадров/сек
Цветовое пространство : YUV
Субдискретизация насыщенности : 4:2:0
Битовая глубина : 8 бит
Тип развёртки : Прогрессивная
Бит/(Пиксели*Кадры) : 0.196
Размер потока : 319 Мбайт (93%)
Библиотека кодирования : x264 core 116 r2019 9cc407d
Настройки программы : cabac=1 / ref=8 / deblock=1:0:0 / analyse=0x3:0x133 / me=umh / subme=7 / psy=1 / psy_rd=1.00:0.00 / mixed_ref=1 / me_range=16 / chroma_me=1 / trellis=2 / 8x8dct=1 / cqm=0 / deadzone=21,11 / fast_pskip=0 / chroma_qp_offset=-2 / threads=3 / sliced_threads=0 / nr=0 / decimate=0 / interlaced=0 / bluray_compat=0 / constrained_intra=0 / bframes=6 / b_pyramid=2 / b_adapt=2 / b_bias=0 / direct=3 / weightb=1 / open_gop=0 / weightp=2 / keyint=250 / keyint_min=25 / scenecut=40 / intra_refresh=0 / rc_lookahead=100 / rc=2pass / mbtree=1 / bitrate=2168 / ratetol=1.0 / qcomp=0.70 / qpmin=0 / qpmax=69 / qpstep=4 / cplxblur=20.0 / qblur=0.5 / ip_ratio=1.40 / aq=1:1.00

Аудио
Идентификатор : 2
Формат : AAC
Формат/Информация : Advanced Audio Codec
Профиль формата : LC
Идентификатор кодека : 40
Продолжительность : 20 м.
Вид битрейта : Переменный
Битрейт : 163 Кбит/сек
Максимальный битрейт : 178 Кбит/сек
Каналы : 2 канала
Расположение каналов : Front: L R
Частота : 48,0 КГц
Метод сжатия : С потерями
Размер потока : 24,0 Мбайт (7%)



   Похожие торренты   Торрент   Размер 
В этой теме нет новых непрочитанных сообщений. Следствие ведут Колобки [01-04 из 04] (1986-1987) DVDRip-AVC от Leonardo and Scarabey

775 | 19

402.47 МБ

В этой теме нет новых непрочитанных сообщений. Следствие ведут Колобки (1986) DVDRip

108 | 12

280.62 МБ

В этой теме нет новых непрочитанных сообщений. Следствие ведут Колобки (1983) TVRip

18 | 13

250.21 МБ

В этой теме нет новых непрочитанных сообщений. Наши мульти - пульти: Следствие ведут Колобки. Сборник 15 (1975-1989) DVDRip-AVC от Тorrent-Хzona

33 | 6

1.06 ГБ

В этой теме нет новых непрочитанных сообщений. Следствие ведут ЗнаТоКи. Дело №1-24 (1971-2003) DVDRip+TVRip

103 | 44

37.17 ГБ

В этой теме нет новых непрочитанных сообщений. Следствие ведут ЗнаТоКи. Дело №1-24 (1971-2003) DVDRip, TVRip

51 | 135

34.18 ГБ

В этой теме нет новых непрочитанных сообщений. Следствие ведут ЗнаТоКи. Дело №1-24 (1971-2003) DVDRip+SATRip-AVC от ExKinoRay

31 | 60

40.88 ГБ




Вы не можете начинать темы
Вы не можете отвечать на сообщения
Вы не можете редактировать свои сообщения
Вы не можете удалять свои сообщения
Вы не можете добавлять вложения

Перейти:  
Для Мосгорсуда, Роскомнадзора и рекламодателей: mosgorsud-torrent[собачка]yandex.ru
 Вход
ppkBB3cker v.2 © 2008-2014 @ PPK
[ Time : 0.030s | 14 Queries | GZIP : Off ]

Торрент трекер RUTOR.IN, Не можете зайти на rutor.org? Какой новый адрес рутор? Какое зеркало рутор? Не работает rutor.org и зеркала? Тогда наш торрент специально для вас. Rutor.in неофициальное зеркало rutor. В случае если у Вас заблокирован rutor или вдруг Вы не можете на него зайти, то Вы без труда сможете скачать бесплатно и без рекламы последние новинки кино, игр, сериалов и прочего у нас, на Rutor.in. Не нужно использовать прокси, чтобы зайти на рутор, достаточно воспользоваться нашим ресурсом. Все новые фильмы, игры, сериалы, книги и музыка за 2013 и 2014 годы через торрент бесплатно. Скачивайте фильмы в хорошем качестве, игры для пк, xbox, playstation без регистрации. У нас вы найдете новые Зарубежные сериалы и Русские сериалы 2013, 2014, 2015 годов. Оставайтесь с нами, качайте любимые фильмы, игры, сериалы, книги и музыку.