img image001 image001 image001 image001 image001 image001 image001 image001 image001 image001 image001 image001 image001 image001 image001

Planets Sun Sun Sun
Статистика раздачи
Автор: Снежана | Размер: 17.44 ГБ | Добавлен: 27 июл 2013
Раздают: 13    Качают: 4
Скачать торрент
Скачать торрент
Описание торрента

СообщениеДобавлено: 27 июл 2013 

#77

Год выпуска: 2007
Страна: Франция
Жанр: анимация
Продолжительность: ~ 5:40 х 19-20 серий х 4 DVD (итого 78 сюжетов)
Перевод: Не требуется
Русские субтитры: нет
Режиссер: Thomas Szabo, Helene Giraud
В ролях: Божья коровка и другие.
Описание: Это коротенькие истории о трудной, противоречивой жизни насекомых. Жизни, так похожей на нашу.

Общее
Полное имя : //Miniscule vol.1-4 (DVD5)Miniscule vol.1VIDEO_TSVTS_17_1.VOB
Формат : MPEG-PS
Размер файла : 191 Мбайт
Продолжительность : 5 м. 38 с.
Общий поток : 4738 Кбит/сек

Видео
Идентификатор : 224 (0xE0)
Формат : MPEG Video
Версия формата : Version 2
Профиль формата : Main@Main
Параметр BVOP формата : Да
Параметр матрицы формата : По умолчанию
Параметры GOP формата : M=3, N=12
Продолжительность : 5 м. 38 с.
Вид битрейта : Переменный
Битрейт : 4452 Кбит/сек
Номинальный битрейт : 8500 Кбит/сек
Ширина : 720 пикс.
Высота : 576 пикс.
Соотношение сторон : 4:3
Частота кадров : 25,000 кадр/сек
Стандарт вещания : PAL
Цветовое пространство : YUV
Подвыборка цветности : 4:2:0
Битовая глубина : 8 бит
Тип развёртки : Чересстрочная
Порядок развёртки : Верхнее поле первое
Метод сжатия : С потерями
Бит/(Пиксели*Кадры) : 0.429
Размер потока : 179 Мбайт (94%)

Аудио
Идентификатор : 189 (0xBD)-128 (0x80)
Формат : AC-3
Формат/Информация : Audio Coding 3
Расширение режима : CM (complete main)
Режим смешивания : DVD-Video
Продолжительность : 5 м. 37 с.
Вид битрейта : Постоянный
Битрейт : 192 Кбит/сек
Каналы : 2 канала
Расположение каналов : Front: L R
Частота : 48,0 КГц
Битовая глубина : 16 бит
Метод сжатия : С потерями
Размер потока : 7,73 Мбайт (4%)

Меню





Общее
Полное имя : //Miniscule vol.1-4 (DVD5)Miniscule vol.2VIDEO_TSVTS_03_1.VOB
Формат : MPEG-PS
Размер файла : 210 Мбайт
Продолжительность : 5 м. 32 с.
Общий поток : 5281 Кбит/сек

Видео
Идентификатор : 224 (0xE0)
Формат : MPEG Video
Версия формата : Version 2
Профиль формата : Main@Main
Параметр BVOP формата : Да
Параметр матрицы формата : По умолчанию
Продолжительность : 5 м. 32 с.
Вид битрейта : Переменный
Битрейт : 4984 Кбит/сек
Номинальный битрейт : 8500 Кбит/сек
Ширина : 720 пикс.
Высота : 576 пикс.
Соотношение сторон : 4:3
Частота кадров : 25,000 кадр/сек
Стандарт вещания : PAL
Цветовое пространство : YUV
Подвыборка цветности : 4:2:0
Битовая глубина : 8 бит
Тип развёртки : Чересстрочная
Порядок развёртки : Верхнее поле первое
Метод сжатия : С потерями
Бит/(Пиксели*Кадры) : 0.481
Размер потока : 198 Мбайт (94%)

Аудио
Идентификатор : 189 (0xBD)-128 (0x80)
Формат : AC-3
Формат/Информация : Audio Coding 3
Расширение режима : CM (complete main)
Режим смешивания : DVD-Video
Продолжительность : 5 м. 32 с.
Вид битрейта : Постоянный
Битрейт : 192 Кбит/сек
Каналы : 2 канала
Расположение каналов : Front: L R
Частота : 48,0 КГц
Битовая глубина : 16 бит
Метод сжатия : С потерями
Размер потока : 7,61 Мбайт (4%)

Меню






Общее
Полное имя : //Miniscule vol.1-4 (DVD5)Miniscule vol.3VIDEO_TSVTS_05_1.VOB
Формат : MPEG-PS
Размер файла : 230 Мбайт
Продолжительность : 5 м. 35 с.
Общий поток : 5759 Кбит/сек

Видео
Идентификатор : 224 (0xE0)
Формат : MPEG Video
Версия формата : Version 2
Профиль формата : Main@Main
Параметр BVOP формата : Да
Параметр матрицы формата : По умолчанию
Продолжительность : 5 м. 35 с.
Вид битрейта : Переменный
Битрейт : 5452 Кбит/сек
Номинальный битрейт : 8500 Кбит/сек
Ширина : 720 пикс.
Высота : 576 пикс.
Соотношение сторон : 4:3
Частота кадров : 25,000 кадр/сек
Стандарт вещания : PAL
Цветовое пространство : YUV
Подвыборка цветности : 4:2:0
Битовая глубина : 8 бит
Тип развёртки : Чересстрочная
Порядок развёртки : Верхнее поле первое
Метод сжатия : С потерями
Бит/(Пиксели*Кадры) : 0.526
Размер потока : 218 Мбайт (95%)

Аудио
Идентификатор : 189 (0xBD)-128 (0x80)
Формат : AC-3
Формат/Информация : Audio Coding 3
Расширение режима : CM (complete main)
Режим смешивания : DVD-Video
Продолжительность : 5 м. 35 с.
Вид битрейта : Постоянный
Битрейт : 192 Кбит/сек
Каналы : 2 канала
Расположение каналов : Front: L R
Частота : 48,0 КГц
Битовая глубина : 16 бит
Метод сжатия : С потерями
Размер потока : 7,67 Мбайт (3%)

Меню




Общее
Полное имя : //Miniscule vol.1-4 (DVD5)Miniscule vol.4VIDEO_TSVTS_01_0.VOB
Формат : MPEG-PS
Размер файла : 213 Мбайт
Продолжительность : 59 с.
Общий поток : 29,7 Мбит/сек

Видео
Идентификатор : 224 (0xE0)
Формат : MPEG Video
Версия формата : Version 2
Профиль формата : Main@Main
Параметр BVOP формата : Да
Параметр матрицы формата : По умолчанию
Параметры GOP формата : M=3, N=12
Продолжительность : 40 мс.
Вид битрейта : Постоянный
Битрейт : 29,0 Мбит/сек
Номинальный битрейт : 8000 Кбит/сек
Ширина : 720 пикс.
Высота : 576 пикс.
Соотношение сторон : 4:3
Частота кадров : 25,000 кадр/сек
Стандарт вещания : PAL
Цветовое пространство : YUV
Подвыборка цветности : 4:2:0
Битовая глубина : 8 бит
Тип развёртки : Чересстрочная
Порядок развёртки : Нижнее поле первое
Метод сжатия : С потерями
Бит/(Пиксели*Кадры) : 2.793
Размер потока : 141 Кбайт (0%)

Аудио
Идентификатор : 189 (0xBD)-128 (0x80)
Формат : AC-3
Формат/Информация : Audio Coding 3
Расширение режима : CM (complete main)
Режим смешивания : DVD-Video
Продолжительность : 59 с.
Вид битрейта : Постоянный
Битрейт : 192 Кбит/сек
Каналы : 2 канала
Расположение каналов : Front: L R
Частота : 48,0 КГц
Битовая глубина : 16 бит
Метод сжатия : С потерями
Задержка видео : -80 мс.
Размер потока : 1,37 Мбайт (1%)

Текст
Идентификатор : 189 (0xBD)-32 (0x20)
Формат : RLE
Формат/Информация : Run-length encoding
Режим смешивания : DVD-Video

Меню




Дополнительная информация: Это DVD-5 сделанные из DVD-9.
Качество: DVD5 (сжатый) х 4 шт.
Формат: DVD Video
Видео кодек: MPEG2
Аудио кодек: AC3
Видео: PAL 4:3 (720x576@768x576) VBR (Average bitrate 4.82 Mbps)
Аудио: Francais (Dolby AC3, 2 ch), 48 Khz stereo, 192Kbps, Delay 0 mSec




   Похожие торренты   Торрент   Размер 
В этой теме нет новых непрочитанных сообщений. Крошечные существа - Частная жизнь насекомых / Крохи / Minuscule (2006) DVDRip

12 | 10

3.97 ГБ

В этой теме нет новых непрочитанных сообщений. Букашки. Приключение в Долине муравьев / Minuscule - Minuscule - La vallee des fourmis perdues BDRip 1080p от R.G. HD-Films | 3D | 120 fps

118 | 21

15.15 ГБ

В этой теме нет новых непрочитанных сообщений. Букашки / Minuscule (S01) (2006-2007) DVDRip

588 | 60

2.91 ГБ

В этой теме нет новых непрочитанных сообщений. Параллельно любви [01-08 из 08] (2004) 4хDVD5

3 | 20

13.04 ГБ

В этой теме нет новых непрочитанных сообщений. Брак по завещанию [01-12 серии из 12] (2009) 4хDVD5

24 | 10

17.01 ГБ

В этой теме нет новых непрочитанных сообщений. Казус Кукоцкого [01-12 из 12] (2005) 4хDVD5 от Youtracker

0 | 2

16.45 ГБ

В этой теме нет новых непрочитанных сообщений. Остров ненужных людей [01-24 из 24] (2011) 4хDVD5

18 | 16

17.06 ГБ




Вы не можете начинать темы
Вы не можете отвечать на сообщения
Вы не можете редактировать свои сообщения
Вы не можете удалять свои сообщения
Вы не можете добавлять вложения

Перейти:  
Для Мосгорсуда, Роскомнадзора и рекламодателей: mosgorsud-torrent[собачка]yandex.ru
 Вход
ppkBB3cker v.2 © 2008-2014 @ PPK
[ Time : 0.042s | 14 Queries | GZIP : Off ]

Торрент трекер RUTOR.IN, Не можете зайти на rutor.org? Какой новый адрес рутор? Какое зеркало рутор? Не работает rutor.org и зеркала? Тогда наш торрент специально для вас. Rutor.in неофициальное зеркало rutor. В случае если у Вас заблокирован rutor или вдруг Вы не можете на него зайти, то Вы без труда сможете скачать бесплатно и без рекламы последние новинки кино, игр, сериалов и прочего у нас, на Rutor.in. Не нужно использовать прокси, чтобы зайти на рутор, достаточно воспользоваться нашим ресурсом. Все новые фильмы, игры, сериалы, книги и музыка за 2013 и 2014 годы через торрент бесплатно. Скачивайте фильмы в хорошем качестве, игры для пк, xbox, playstation без регистрации. У нас вы найдете новые Зарубежные сериалы и Русские сериалы 2013, 2014, 2015 годов. Оставайтесь с нами, качайте любимые фильмы, игры, сериалы, книги и музыку.