img image001 image001 image001 image001 image001 image001 image001 image001 image001 image001 image001 image001 image001 image001 image001

Planets Sun Sun Sun
Статистика раздачи
Автор: Снежана | Размер: 4.37 ГБ | Добавлен: 27 июл 2013
Раздают: 28    Качают: 14
Скачать торрент
Скачать торрент
Описание торрента

СообщениеДобавлено: 27 июл 2013 

#77

Информация о фильме
Название: Би Муви: Медовый заговор
Оригинальное название: Bee Movie
Год выхода: 2007
Жанр: мультфильм, комедия, приключения, семейный
Режиссер: Стив Хикнер, Саймон Дж. Смит
В ролях: Джерри Сейнфелд, Рене Зеллвегер, Мэттью Бродерик, Патрик Варбертон, Джон Гудмен, Крис Рок, Кэти Бейтс, Барри Левинсон, Ларри Кинг, Рэй Лиотта

О фильме: Барри Би Нельсон — пчелка, только что закончившая колледж и весьма разочарованная дальнейшей карьерой. Ведь единственный выбор, открывающийся перед ней — сбор меда. Отправившись куда глаза глядят, Барри попадает в передрягу, из которой его вызволяет Ванесса, нью-йоркская цветочница.

Барри немедленно влюбляется в спасительницу, и перебирается жить поближе к ней. Именно в Нью-Йорке он узнает, что мед, который с таким трудом добывают пчелы, люди съедают. И Барри решает предъявить человечеству иск.


Выпущено: DreamWorks Animation
Продолжительность: 01:30:41
Перевод: Дублированный

Файл
Кодек: x264
Качество: BDRip (источник: Blu-ray Disc)
Видео: 1920x1080 (16:9), 23.976 fps, 6515 kbps
Звук: 48 kHz, AC-3, 6 ch, 384 kbps
Субтитры: Русские, Английские
Скачать: сэмпл

Скриншоты

Общее
Уникальный идентификатор : 246023135115610398320149858512138855296 (0xB9165511296AE70493A6591ACA5AE380)
Полное имя : Bee.Movie.2007.BDRip.1080p.Rus.mkv
Формат : Matroska
Версия формата : Version 2
Размер файла : 4,37 Гбайт
Продолжительность : 1 ч. 30 м.
Общий поток : 6903 Кбит/сек
Дата кодирования : UTC 2011-09-16 19:00:09
Программа кодирования : mkvmerge v4.0.0 ('The Stars were mine') сборка от Jun 6 2010 16:18:42
Библиотека кодирования : libebml v1.0.0 + libmatroska v1.0.0

Видео
Идентификатор : 1
Формат : AVC
Формат/Информация : Advanced Video Codec
Профиль формата : High@L4.1
Параметр CABAC формата : Да
Параметр ReFrames формата : 4 кадра
Идентификатор кодека : V_MPEG4/ISO/AVC
Продолжительность : 1 ч. 30 м.
Битрейт : 6515 Кбит/сек
Ширина : 1920 пикселей
Высота : 1080 пикселей
Соотношение сторон : 16:9
Частота кадров : 23,976 кадра/сек
Цветовое пространство : YUV
Субдискретизация насыщенности : 4:2:0
Битовая глубина : 8 бит
Тип развёртки : Прогрессивная
Бит/(Пиксели*Кадры) : 0.131
Размер потока : 4,04 Гбайт (92%)
Библиотека кодирования : x264 core 116 r2074 2641b9e
Настройки программы : cabac=1 / ref=4 / deblock=1:0:0 / analyse=0x3:0x133 / me=umh / subme=10 / psy=1 / psy_rd=1.00:0.00 / mixed_ref=1 / me_range=32 / chroma_me=1 / trellis=2 / 8x8dct=1 / cqm=0 / deadzone=21,11 / fast_pskip=0 / chroma_qp_offset=-2 / threads=12 / sliced_threads=0 / nr=0 / decimate=1 / interlaced=0 / bluray_compat=0 / constrained_intra=0 / bframes=3 / b_pyramid=2 / b_adapt=2 / b_bias=0 / direct=3 / weightb=1 / open_gop=0 / weightp=2 / keyint=250 / keyint_min=23 / scenecut=40 / intra_refresh=0 / rc_lookahead=60 / rc=2pass / mbtree=1 / bitrate=6515 / ratetol=1.0 / qcomp=0.60 / qpmin=0 / qpmax=69 / qpstep=4 / cplxblur=20.0 / qblur=0.5 / ip_ratio=1.40 / aq=1:1.00
Язык : English

Аудио
Идентификатор : 2
Формат : AC-3
Формат/Информация : Audio Coding 3
Расширение режима : CM (complete main)
Идентификатор кодека : A_AC3
Продолжительность : 1 ч. 30 м.
Вид битрейта : Постоянный
Битрейт : 384 Кбит/сек
Каналы : 6 каналов
Расположение каналов : Front: L C R, Side: L R, LFE
Частота : 48,0 КГц
Битовая глубина : 16 бит
Метод сжатия : С потерями
Размер потока : 249 Мбайт (6%)
Язык : Russian

Текст #1
Идентификатор : 3
Формат : UTF-8
Идентификатор кодека : S_TEXT/UTF8
Идентификатор кодека/Информация : UTF-8 Plain Text
Язык : Russian

Текст #2
Идентификатор : 4
Формат : UTF-8
Идентификатор кодека : S_TEXT/UTF8
Идентификатор кодека/Информация : UTF-8 Plain Text
Язык : English

Меню
00:00:00.000 : :Chapter 01
00:07:18.436 : :Chapter 02
00:09:39.828 : :Chapter 03
00:12:13.566 : :Chapter 04
00:19:53.525 : :Chapter 05
00:27:25.435 : :Chapter 06
00:31:37.812 : :Chapter 07
00:41:35.826 : :Chapter 08
00:45:00.030 : :Chapter 09
00:50:50.547 : :Chapter 10
00:55:28.575 : :Chapter 11
00:59:23.142 : :Chapter 12
01:04:54.724 : :Chapter 13
01:09:09.019 : :Chapter 14
01:17:52.084 : :Chapter 15
01:22:26.816 : :Chapter 16
01:30:40.600 : :Chapter 17



   Похожие торренты   Торрент   Размер 
В этой теме нет новых непрочитанных сообщений. Би Муви: Медовый заговор / Bee Movie (2007) BDRip 1080p от HD Club

6 | 3

7.04 ГБ

В этой теме нет новых непрочитанных сообщений. Би Муви: Медовый заговор / Bee Movie (2007) BDRip от HQ-ViDEO

9 | 7

1.69 ГБ

В этой теме нет новых непрочитанных сообщений. Би Муви: Медовый заговор / Bee Movie (2007) BDRip от HQCLUB

23 | 5

1.94 ГБ

В этой теме нет новых непрочитанных сообщений. Би Муви: Медовый заговор / Bee Movie (2007) BDRip-AVC от DenisNN

5 | 2

2.29 ГБ

В этой теме нет новых непрочитанных сообщений. Би Муви: Медовый заговор / Bee Movie (2007) BDRip 720p от Leonardo and Scarabey

69 | 7

3.27 ГБ

В этой теме нет новых непрочитанных сообщений. Би Муви: Медовый заговор / Bee Movie (2007) DVDRip

28 | 3

1.37 ГБ

В этой теме нет новых непрочитанных сообщений. Би Муви: Медовый заговор / Bee Movie (2007) HDRip

193 | 7

746.71 МБ




Вы не можете начинать темы
Вы не можете отвечать на сообщения
Вы не можете редактировать свои сообщения
Вы не можете удалять свои сообщения
Вы не можете добавлять вложения

Перейти:  
Для Мосгорсуда, Роскомнадзора и рекламодателей: mosgorsud-torrent[собачка]yandex.ru
 Вход
ppkBB3cker v.2 © 2008-2014 @ PPK
[ Time : 0.027s | 16 Queries | GZIP : Off ]

Торрент трекер RUTOR.IN, Не можете зайти на rutor.org? Какой новый адрес рутор? Какое зеркало рутор? Не работает rutor.org и зеркала? Тогда наш торрент специально для вас. Rutor.in неофициальное зеркало rutor. В случае если у Вас заблокирован rutor или вдруг Вы не можете на него зайти, то Вы без труда сможете скачать бесплатно и без рекламы последние новинки кино, игр, сериалов и прочего у нас, на Rutor.in. Не нужно использовать прокси, чтобы зайти на рутор, достаточно воспользоваться нашим ресурсом. Все новые фильмы, игры, сериалы, книги и музыка за 2013 и 2014 годы через торрент бесплатно. Скачивайте фильмы в хорошем качестве, игры для пк, xbox, playstation без регистрации. У нас вы найдете новые Зарубежные сериалы и Русские сериалы 2013, 2014, 2015 годов. Оставайтесь с нами, качайте любимые фильмы, игры, сериалы, книги и музыку.