img image001 image001 image001 image001 image001 image001 image001 image001 image001 image001 image001 image001 image001 image001 image001

Planets Sun Sun Sun
Статистика раздачи
Автор: Снежана | Размер: 4.37 ГБ | Добавлен: 27 июл 2013
Раздают: 552    Качают: 65
Скачать торрент
Скачать торрент
Описание торрента

СообщениеДобавлено: 27 июл 2013 

#77

Информация о фильме
Название: Вверх
Оригинальное название: Up
Год выхода: 2009
Жанр: мультфильм, драма, комедия, приключения, семейный
Режиссер: Пит Доктер, Боб Питерсон
В ролях: Эдвард Эснер, Кристофер Пламмер, Джордан Нагаи, Боб Питерсон, Делрой Линдо, Джером Рэнфт, Джон Ратценбергер, Дэвид Кэй, Эли Доктер, Джереми Лири

О фильме: 78-летний ворчун Карл Фредриксен считает, что жизнь обходит его стороной. Чтобы сдержать обещание, данное своей почившей жене, он решает осуществить свою мечту о великом приключении, привязав тысячи воздушных шариков к своему дому и улетев в дебри Южной Америки. Не пролетев и полмили, путешественник обнаруживает, что он ненароком прихватил с собой крайне разговорчивого и неисправимо жизнерадостного 8-летнего мальчика по имени Рассел…


Выпущено: Walt Disney Pictures
Продолжительность: 01:36:38
Перевод: Дублированный [локализован в т.ч. и видеоряд]

Файл
Кодек: x264
Качество: BDRip (источник: Blu-ray Disc)
Видео: 1920x1080 (16:9), 23.976 fps, 5840 kbps
Звук: 48 kHz, AC-3, 6 ch, 640 kbps
Скачать: сэмпл

Скриншоты

Общее
Уникальный идентификатор : 196973595869158735161629750174680019969 (0x942FBC12458F3E849811B2A69C4EF401)
Полное имя : Up.2009.BDRip.1080p.Rus.mkv
Формат : Matroska
Версия формата : Version 2
Размер файла : 4,37 Гбайт
Продолжительность : 1 ч. 36 м.
Общий поток : 6482 Кбит/сек
Дата кодирования : UTC 2011-09-16 19:28:56
Программа кодирования : mkvmerge v4.0.0 ('The Stars were mine') сборка от Jun 6 2010 16:18:42
Библиотека кодирования : libebml v1.0.0 + libmatroska v1.0.0

Видео
Идентификатор : 1
Формат : AVC
Формат/Информация : Advanced Video Codec
Профиль формата : High@L4.1
Параметр CABAC формата : Да
Параметр ReFrames формата : 4 кадра
Идентификатор кодека : V_MPEG4/ISO/AVC
Продолжительность : 1 ч. 36 м.
Битрейт : 5840 Кбит/сек
Ширина : 1920 пикселей
Высота : 1080 пикселей
Соотношение сторон : 16:9
Частота кадров : 23,976 кадра/сек
Цветовое пространство : YUV
Субдискретизация насыщенности : 4:2:0
Битовая глубина : 8 бит
Тип развёртки : Прогрессивная
Бит/(Пиксели*Кадры) : 0.117
Размер потока : 3,86 Гбайт (88%)
Библиотека кодирования : x264 core 116 r2074 2641b9e
Настройки программы : cabac=1 / ref=4 / deblock=1:0:0 / analyse=0x3:0x133 / me=umh / subme=10 / psy=1 / psy_rd=1.00:0.00 / mixed_ref=1 / me_range=32 / chroma_me=1 / trellis=2 / 8x8dct=1 / cqm=0 / deadzone=21,11 / fast_pskip=0 / chroma_qp_offset=-2 / threads=12 / sliced_threads=0 / nr=0 / decimate=1 / interlaced=0 / bluray_compat=0 / constrained_intra=0 / bframes=3 / b_pyramid=2 / b_adapt=2 / b_bias=0 / direct=3 / weightb=1 / open_gop=0 / weightp=2 / keyint=250 / keyint_min=23 / scenecut=40 / intra_refresh=0 / rc_lookahead=60 / rc=2pass / mbtree=1 / bitrate=5840 / ratetol=1.0 / qcomp=0.60 / qpmin=0 / qpmax=69 / qpstep=4 / cplxblur=20.0 / qblur=0.5 / ip_ratio=1.40 / aq=1:1.00
Язык : English

Аудио
Идентификатор : 2
Формат : AC-3
Формат/Информация : Audio Coding 3
Расширение режима : CM (complete main)
Идентификатор кодека : A_AC3
Продолжительность : 1 ч. 36 м.
Вид битрейта : Постоянный
Битрейт : 640 Кбит/сек
Каналы : 6 каналов
Расположение каналов : Front: L C R, Side: L R, LFE
Частота : 48,0 КГц
Битовая глубина : 16 бит
Метод сжатия : С потерями
Размер потока : 442 Мбайт (10%)
Язык : Russian

Текст #1
Идентификатор : 3
Формат : UTF-8
Идентификатор кодека : S_TEXT/UTF8
Идентификатор кодека/Информация : UTF-8 Plain Text
Язык : Russian

Текст #2
Идентификатор : 4
Формат : UTF-8
Идентификатор кодека : S_TEXT/UTF8
Идентификатор кодека/Информация : UTF-8 Plain Text
Язык : English

Меню
00:00:00.000 : :Chapter 01
00:02:39.409 : :Chapter 02
00:07:14.183 : :Chapter 03
00:11:37.488 : :Chapter 04
00:13:33.479 : :Chapter 05
00:15:22.087 : :Chapter 06
00:17:35.888 : :Chapter 07
00:20:25.140 : :Chapter 08
00:24:31.302 : :Chapter 09
00:26:23.790 : :Chapter 10
00:28:02.555 : :Chapter 11
00:29:40.236 : :Chapter 12
00:33:20.164 : :Chapter 13
00:34:20.391 : :Chapter 14
00:35:14.487 : :Chapter 15
00:39:49.511 : :Chapter 16
00:42:34.843 : :Chapter 17
00:44:41.178 : :Chapter 18
00:46:17.232 : :Chapter 19
00:49:19.122 : :Chapter 20
00:52:20.929 : :Chapter 21
00:55:23.987 : :Chapter 22
01:00:33.546 : :Chapter 23
01:04:19.188 : :Chapter 24
01:06:14.303 : :Chapter 25
01:08:58.008 : :Chapter 26
01:10:20.716 : :Chapter 27
01:13:35.327 : :Chapter 28
01:15:24.352 : :Chapter 29
01:17:52.751 : :Chapter 30
01:19:45.864 : :Chapter 31
01:21:53.867 : :Chapter 32
01:23:23.289 : :Chapter 33
01:26:02.657 : :Chapter 34
01:29:02.420 : :Chapter 35
01:36:37.374 : :Chapter 36



   Похожие торренты   Торрент   Размер 
В этой теме нет новых непрочитанных сообщений. Вверх / Up (2009) BDRip 1080p

276 | 10

7.56 ГБ

В этой теме нет новых непрочитанных сообщений. Вверх / Up (2009) BDrip 1080p | 3D-Video

65 | 5

7.51 ГБ

В этой теме нет новых непрочитанных сообщений. Вверх / Up (2009) BDRip-AVC | iPad

58 | 4

1.54 ГБ

В этой теме нет новых непрочитанных сообщений. Вверх / Up (2009) BDRip от RAMpage CHG

107 | 4

701.4 МБ

В этой теме нет новых непрочитанных сообщений. Вверх / Up (2009) BDRip от HELLYWOOD

144 | 11

1.46 ГБ

В этой теме нет новых непрочитанных сообщений. Вверх / Up (2009) BDRip от HELLYWOOD

0 | 2

1.46 ГБ

В этой теме нет новых непрочитанных сообщений. Вверх / Up (2009) BDRip 720 от SuperMin

291 | 28

3.13 ГБ




Вы не можете начинать темы
Вы не можете отвечать на сообщения
Вы не можете редактировать свои сообщения
Вы не можете удалять свои сообщения
Вы не можете добавлять вложения

Перейти:  
Для Мосгорсуда, Роскомнадзора и рекламодателей: mosgorsud-torrent[собачка]yandex.ru
 Вход
ppkBB3cker v.2 © 2008-2014 @ PPK
[ Time : 0.013s | 13 Queries | GZIP : On ]
CGP output time : 1.405s | 5 Queries | GZIP : On

Торрент трекер RUTOR.IN, Не можете зайти на rutor.org? Какой новый адрес рутор? Какое зеркало рутор? Не работает rutor.org и зеркала? Тогда наш торрент специально для вас. Rutor.in неофициальное зеркало rutor. В случае если у Вас заблокирован rutor или вдруг Вы не можете на него зайти, то Вы без труда сможете скачать бесплатно и без рекламы последние новинки кино, игр, сериалов и прочего у нас, на Rutor.in. Не нужно использовать прокси, чтобы зайти на рутор, достаточно воспользоваться нашим ресурсом. Все новые фильмы, игры, сериалы, книги и музыка за 2013 и 2014 годы через торрент бесплатно. Скачивайте фильмы в хорошем качестве, игры для пк, xbox, playstation без регистрации. У нас вы найдете новые Зарубежные сериалы и Русские сериалы 2013, 2014, 2015 годов. Оставайтесь с нами, качайте любимые фильмы, игры, сериалы, книги и музыку.