img image001 image001 image001 image001 image001 image001 image001 image001 image001 image001 image001 image001 image001 image001 image001

Planets Sun Sun Sun
Статистика раздачи
Автор: Снежана | Размер: 6.72 ГБ | Добавлен: 27 июл 2013
Раздают: 1    Качают: 2
Скачать торрент
Скачать торрент
Описание торрента

СообщениеДобавлено: 27 июл 2013 

-= Спасатели / The Rescuers / HDTV 1080i =-
«Двое отважных агентов мышат против самой большой Злючки в мире!»

#77

Год выпуска: 1977
Страна: США - (Walt Disney)
Жанр: Анимационный, приключения, семейный, мультфильм
Продолжительность: 01:14:01
Перевод:
1) Профессиональный (Полное Дублирование) - Студия "Пифагор"
2) Профессиональный (Многоголосый, закадровый) - Концерн "Видеосервис"
3) Авторский (Закадровый, Ю.Живов)
4) Авторский (Закадровый, В.Дохалов)
Субтитры: нет

Режиссеры: Джон Лоунсбери / John Lounsbery
Вольфганг Райтерман / Wolfgang Reitherman
Арт Стивенс / Art Stievens
Роли озвучивали: Боб Ньюхарт, Ева Габор, Джеральдин Пейдж, Джо Флинн, Жанетт Нолан, Пэт Баттрем

Описание: Мультэкранизация по мотивам сказок Марджери Шарп "Спасатели" и "Мисс Бьянка". В Нью-Йорке в здании Организации Объединённых Наций разместилось международное мышиное Общество Помощи и Спасения. На сей раз мышиные делегаты со всего света собрались, чтобы обсудить полученный призыв о помощи от маленькой девочки Пенни, попавшей в какую-то передрягу. Две смелые мышки мисс Бьянка и её помощник Бернард направляются на поиски и попадают при помощи комично-нерасторопного авиарикши Альбатроса Орвилла в Бухту Дьявола. Именно здесь в плену у безжалостной госпожи Медузы под охраной её любимчиков двух злобных жирных крокодилов томится Пенни, которую угрозами принуждают достать "Дьявольский глаз" — огромный алмаз из пещеры, куда может пробраться только ребенок. Объединившись с местным звериным народом, "спасатели" дают злодеям решительный бой.
Залихватские приключения на суше, воде и в воздухе поданы с изрядной долей пародии на шпионские детективы в духе Джеймса Бонда. Немало в картине и запоминающихся песен "Путешествие" (The Journey), "Общество спасателей" (Rescue Aid Society), "Кто спасет меня?" (Who Will Rescue Me?) и др. А лучшей из всех была признана "Кто-то ждёт тебя" (Someone's Waiting for You), удостоенная оскаровской номинации за лучшую песню года.



Качество: HDTV 1080i
Формат: TS
Аудио кодек: AC3
Видео: AVC 1920x1080, 25fps, 10600 Кбит/сек
Аудио#1: Русский: AC3 2.0, 384kbps - Профессиональный (Полное Дублирование)
Аудио#2: Русский: AC3 5.1, 384kbps - Профессиональный (Многоголосый, закадровый)
Аудио#3: Русский: AC3 5.1, 448kbps - Авторский (Закадровый, Ю.Живов)
Аудио#4: Русский: AC3 2.0, 192kbps - Авторский (Закадровый, В.Дохалов)
Аудио#5: Английский: AC3 2.0, 384kbps - Original
Код:
Общее
 Полное имя : The.Rescuers.1977.HDTV.1080i.x264.AC3.Eng.4xRus.by.CClassicHD.ts
 Формат : MPEG-TS
 Размер файла : 6,72 Гбайт
 Продолжительность : 1 ч. 14 м.
 Общий поток : 13,0 Мбит/сек
 Максимальный общий битрейт : 35,5 Мбит/сек

Видео
 Идентификатор : 4113 (0x1011)
 Идентификатор меню : 1 (0x1)
 Формат : AVC
 Формат/Информация : Advanced Video Codec
 Профиль формата : Main@L4.0
 Параметр CABAC формата : Да
 Параметр ReFrames формата : 4 кадры
 Идентификатор кодека : 27
 Продолжительность : 1 ч. 14 м.
 Вид битрейта : Переменный
 Битрейт : 10,6 Мбит/сек
 Максимальный битрейт : 40,0 Мбит/сек
 Ширина : 1920 пикс.
 Высота : 1080 пикс.
 Соотношение сторон : 16:9
 Частота кадров : 25,000 кадр/сек
 Цветовое пространство : YUV
 Подвыборка цветности : 4:2:0
 Битовая глубина : 8 бит
 Тип развёртки : Чересстрочная
 Порядок развёртки : Верхнее поле первое
 Бит/(Пиксели*Кадры) : 0.204
 Размер потока : 5,46 Гбайт (81%)
 Основные цвета : BT.709-5, BT.1361, IEC 61966-2-4, SMPTE RP177
 Характеристики трансфера : BT.709-5, BT.1361
 Коэффициенты матрицы : BT.709-5, BT.1361, IEC 61966-2-4 709, SMPTE RP177

Аудио #1
 Идентификатор : 4352 (0x1100)
 Идентификатор меню : 1 (0x1)
 Формат : AC-3
 Формат/Информация : Audio Coding 3
 Расширение режима : CM (complete main)
 Идентификатор кодека : 129
 Продолжительность : 1 ч. 14 м.
 Вид битрейта : Постоянный
 Битрейт : 384 Кбит/сек
 Канал(ы) : 2 канала(ов)
 Расположение каналов : Front: L R
 Частота : 48,0 КГц
 Битовая глубина : 16 бит
 Метод сжатия : С потерями
 Размер потока : 203 Мбайт (3%)
 Язык : Russian

Аудио #2
 Идентификатор : 4353 (0x1101)
 Идентификатор меню : 1 (0x1)
 Формат : AC-3
 Формат/Информация : Audio Coding 3
 Расширение режима : CM (complete main)
 Идентификатор кодека : 129
 Продолжительность : 1 ч. 14 м.
 Вид битрейта : Постоянный
 Битрейт : 384 Кбит/сек
 Канал(ы) : 6 канала(ов)
 Расположение каналов : Front: L C R, Side: L R, LFE
 Частота : 48,0 КГц
 Битовая глубина : 16 бит
 Метод сжатия : С потерями
 Размер потока : 203 Мбайт (3%)
 Язык : Russian

Аудио #3
 Идентификатор : 4354 (0x1102)
 Идентификатор меню : 1 (0x1)
 Формат : AC-3
 Формат/Информация : Audio Coding 3
 Расширение режима : CM (complete main)
 Идентификатор кодека : 129
 Продолжительность : 1 ч. 14 м.
 Вид битрейта : Постоянный
 Битрейт : 448 Кбит/сек
 Канал(ы) : 6 канала(ов)
 Расположение каналов : Front: L C R, Side: L R, LFE
 Частота : 48,0 КГц
 Битовая глубина : 16 бит
 Метод сжатия : С потерями
 Размер потока : 237 Мбайт (3%)
 Язык : Russian

Аудио #4
 Идентификатор : 4355 (0x1103)
 Идентификатор меню : 1 (0x1)
 Формат : AC-3
 Формат/Информация : Audio Coding 3
 Расширение режима : CM (complete main)
 Идентификатор кодека : 129
 Продолжительность : 1 ч. 14 м.
 Вид битрейта : Постоянный
 Битрейт : 192 Кбит/сек
 Канал(ы) : 2 канала(ов)
 Расположение каналов : Front: L R
 Частота : 48,0 КГц
 Битовая глубина : 16 бит
 Метод сжатия : С потерями
 Размер потока : 102 Мбайт (1%)
 Язык : Russian

Аудио #5
 Идентификатор : 4356 (0x1104)
 Идентификатор меню : 1 (0x1)
 Формат : AC-3
 Формат/Информация : Audio Coding 3
 Расширение режима : CM (complete main)
 Идентификатор кодека : 129
 Продолжительность : 1 ч. 14 м.
 Вид битрейта : Постоянный
 Битрейт : 384 Кбит/сек
 Канал(ы) : 2 канала(ов)
 Расположение каналов : Front: L R
 Частота : 48,0 КГц
 Битовая глубина : 16 бит
 Метод сжатия : С потерями
 Задержка видео : 3 мс.
 Размер потока : 203 Мбайт (3%)
 Язык : English
* Фильм делался усилиями 250 человек на протяжении четырех лет. Он стал последней работой так называемых «новых стариков». Таким прозвищем Уолт Дисней называл команду своих режиссёров и художников, которую подготавливал он лично.

* Популярность «Спасателей» была такова, что позже вышли продолжения в виде полнометражного мультфильма «Спасатели в Австралии» и мультсериала «Чип и Дейл», в котором был муха по имени Вжик, явившийся подобием забавной стрекозы Эвинруда из «Спасателей».
СЭМПЛ



   Похожие торренты   Торрент   Размер 
В этой теме нет новых непрочитанных сообщений. Спасатели / The Rescuers (1977) DVDRip

4 | 4

740.32 МБ

В этой теме нет новых непрочитанных сообщений. Спасатели / The Rescuers (1977) HDTVRip от ExKinoRay

7 | 4

1.09 ГБ

В этой теме нет новых непрочитанных сообщений. Спасатели / The Rescuers (1977) BDRip 1080p

10 | 4

4.09 ГБ

В этой теме нет новых непрочитанных сообщений. Спасатели / The Rescuers (1977) BDRip от HQCLUB

62 | 6

1.46 ГБ

В этой теме нет новых непрочитанных сообщений. Спасатели / The Rescuers (1977) BDRip-AVC от Тorrent-Хzona | D

29 | 5

1.19 ГБ

В этой теме нет новых непрочитанных сообщений. Спасатели / The Rescuers (1977) BDRip от Тorrent-Хzona | D

4 | 1

1.17 ГБ

В этой теме нет новых непрочитанных сообщений. Спасатели в Австралии / The Rescuers Down Under (1990) HDTV 720p

4 | 1

4.19 ГБ




Вы не можете начинать темы
Вы не можете отвечать на сообщения
Вы не можете редактировать свои сообщения
Вы не можете удалять свои сообщения
Вы не можете добавлять вложения

Перейти:  
Для Мосгорсуда, Роскомнадзора и рекламодателей: mosgorsud-torrent[собачка]yandex.ru
 Вход
ppkBB3cker v.2 © 2008-2014 @ PPK
[ Time : 0.087s | 14 Queries | GZIP : Off ]

Торрент трекер RUTOR.IN, Не можете зайти на rutor.org? Какой новый адрес рутор? Какое зеркало рутор? Не работает rutor.org и зеркала? Тогда наш торрент специально для вас. Rutor.in неофициальное зеркало rutor. В случае если у Вас заблокирован rutor или вдруг Вы не можете на него зайти, то Вы без труда сможете скачать бесплатно и без рекламы последние новинки кино, игр, сериалов и прочего у нас, на Rutor.in. Не нужно использовать прокси, чтобы зайти на рутор, достаточно воспользоваться нашим ресурсом. Все новые фильмы, игры, сериалы, книги и музыка за 2013 и 2014 годы через торрент бесплатно. Скачивайте фильмы в хорошем качестве, игры для пк, xbox, playstation без регистрации. У нас вы найдете новые Зарубежные сериалы и Русские сериалы 2013, 2014, 2015 годов. Оставайтесь с нами, качайте любимые фильмы, игры, сериалы, книги и музыку.