img image001 image001 image001 image001 image001 image001 image001 image001 image001 image001 image001 image001 image001 image001 image001

Planets Sun Sun Sun
Статистика раздачи
Автор: Снежана | Размер: 4.37 ГБ | Добавлен: 27 июл 2013
Раздают: 22    Качают: 29
Скачать торрент
Скачать торрент
Описание торрента

СообщениеДобавлено: 27 июл 2013 

#77

Год выпуска: 2009
Страна: США, Корея Южная
Жанр: мультфильм, комедия, семейный
Продолжительность: 01:13:23
Перевод: Профессиональный (двухголосый)

Режиссер: Марк А.З. Диппе
Продюссер: Даниэль Шуба, Джон Дэвис, Эш Р. Шах
Сценарий: Джим Дэвис, Домоник Мюр

В ролях: Грегг Бергер Кэти Кавадини Дженнифер Дарлинг Грег Иглз Грег Финли Джефф Фишер Ванесса Маршалл Дэвид Мичи Пейдж Поллак Нил Росс

Описание: Всем известный кот-толстяк Гарфилд, большой любитель лазаньи, утраивает пикник со своими друзьями, но этот чудный день был испорчен непрошеными гостями. Оди и Нермал становятся супергероями, чтобы прогнать их, но Гарфилд не следует их примеру, ему просто лень. Но когда друзья оказываются в беде, кот понимает, что пришло время надеть маску героя.



Качество: ВDRip1080р
Формат: MKV
Видео кодек: H.264
Аудио кодек: AC3
Видео: 1920x1040, 7857 Кбит/сек , 23,976 кадр/сек, 0.164 bit/pixel
Аудио:
1: 48 kHz, AC3 Dolby Digital, 2/0 (L,R) , 224.00 kbps avg
2: 48 kHz, AC3 Dolby Digital, 3/2 (L,C,R,l,r) + LFE ch, 448.00 kbps avg

Семпл
Общее
Уникальный идентификатор : 209871070900903310717818541389143055500 (0x9DE3B2AF87891A2EB9FE874BEDA79C8C)
Полное имя : D:торрентGarfield's.pet.forse.2009.x264.BDRip1080p.mkv
Формат : Matroska
Версия формата : Version 2
Размер файла : 4,37 Гбайт
Продолжительность : 1 ч. 13 м.
Общий поток : 8529 Кбит/сек
Дата кодирования : UTC 2011-09-30 11:25:18
Программа кодирования : mkvmerge v5.0.0 ('Die Wahre Liebe') built on Sep 25 2011 20:33:49
Библиотека кодирования : libebml v1.2.2 + libmatroska v1.3.0

Видео
Идентификатор : 1
Формат : AVC
Формат/Информация : Advanced Video Codec
Профиль формата : High@L4.1
Параметр CABAC формата : Да
Параметр ReFrames формата : 4 кадра
Идентификатор кодека : V_MPEG4/ISO/AVC
Продолжительность : 1 ч. 13 м.
Битрейт : 7857 Кбит/сек
Ширина : 1920 пикс.
Высота : 1040 пикс.
Соотношение сторон : 16:9
Частота кадров : 23,976 кадр/сек
Цветовое пространство : YUV
Подвыборка цветности : 4:2:0
Битовая глубина : 8 бит
Тип развёртки : Прогрессивная
Бит/(Пиксели*Кадры) : 0.164
Размер потока : 3,94 Гбайт (90%)
Библиотека кодирования : x264 core 118 r2085 8a62835
Настройки программы : cabac=1 / ref=4 / deblock=1:1:1 / analyse=0x3:0x113 / me=umh / subme=9 / psy=1 / psy_rd=0.40:0.00 / mixed_ref=1 / me_range=16 / chroma_me=1 / trellis=1 / 8x8dct=1 / cqm=0 / deadzone=21,11 / fast_pskip=0 / chroma_qp_offset=-2 / threads=6 / sliced_threads=0 / nr=0 / decimate=1 / interlaced=0 / bluray_compat=0 / constrained_intra=0 / bframes=6 / b_pyramid=2 / b_adapt=2 / b_bias=0 / direct=3 / weightb=1 / open_gop=0 / weightp=2 / keyint=250 / keyint_min=23 / scenecut=40 / intra_refresh=0 / rc_lookahead=50 / rc=2pass / mbtree=1 / bitrate=7857 / ratetol=1.0 / qcomp=0.80 / qpmin=0 / qpmax=69 / qpstep=4 / cplxblur=20.0 / qblur=0.5 / ip_ratio=1.40 / aq=1:0.60
Язык : English

Аудио #1
Идентификатор : 2
Формат : AC-3
Формат/Информация : Audio Coding 3
Расширение режима : CM (complete main)
Идентификатор кодека : A_AC3
Продолжительность : 1 ч. 13 м.
Вид битрейта : Постоянный
Битрейт : 224 Кбит/сек
Каналы : 2 канала
Расположение каналов : Front: L R
Частота : 48,0 КГц
Битовая глубина : 16 бит
Метод сжатия : С потерями
Размер потока : 118 Мбайт (3%)
Язык : Russian

Аудио #2
Идентификатор : 3
Формат : AC-3
Формат/Информация : Audio Coding 3
Расширение режима : CM (complete main)
Идентификатор кодека : A_AC3
Продолжительность : 1 ч. 13 м.
Вид битрейта : Постоянный
Битрейт : 448 Кбит/сек
Каналы : 6 каналов
Расположение каналов : Front: L C R, Side: L R, LFE
Частота : 48,0 КГц
Битовая глубина : 16 бит
Метод сжатия : С потерями
Размер потока : 235 Мбайт (5%)
Язык : English

Меню
00:00:00.000 : en:00:00:00.000
00:05:26.159 : en:00:05:26.159
00:09:17.515 : en:00:09:17.515
00:15:40.690 : en:00:15:40.690
00:20:26.225 : en:00:20:26.225
00:24:52.783 : en:00:24:52.783
00:29:24.221 : en:00:29:24.221
00:37:27.078 : en:00:37:27.078
00:42:46.481 : en:00:42:46.481
00:46:32.456 : en:00:46:32.456
00:51:58.824 : en:00:51:58.824
00:54:26.722 : en:00:54:26.722
00:59:33.069 : en:00:59:33.069
01:03:05.198 : en:01:03:05.198
01:08:35.069 : en:01:08:35.069




Релиз от:



   Похожие торренты   Торрент   Размер 
В этой теме нет новых непрочитанных сообщений. Космический спецназ Гарфилда 3D / Garfield's Pet Force 3D (2009) BDRip 720p

20 | 8

2.29 ГБ

В этой теме нет новых непрочитанных сообщений. Фестиваль Гарфилда / Garfield's Fun Fest (2008) DVDRip

10 | 4

1.37 ГБ

В этой теме нет новых непрочитанных сообщений. Спецназ города ангелов / S.W.A.T. (2003) BDRip 1080p от FREEISLAND

18 | 4

4.16 ГБ

В этой теме нет новых непрочитанных сообщений. Безумный спецназ / The Men Who Stare at Goats (2009) BDRip 1080p от NNNB

48 | 10

7.75 ГБ

В этой теме нет новых непрочитанных сообщений. Миссия Дарвина / G-Force (2009) BDRip 1080p

198 | 3

4.37 ГБ

В этой теме нет новых непрочитанных сообщений. Миссия Дарвина / G-Force (2009) BDRip 1080p

7 | 6

8.2 ГБ

В этой теме нет новых непрочитанных сообщений. Миссия Дарвина 3D / G-Force 3D (2009) BDRip 1080p | 3D-Video

52 | 7

6.91 ГБ




Вы не можете начинать темы
Вы не можете отвечать на сообщения
Вы не можете редактировать свои сообщения
Вы не можете удалять свои сообщения
Вы не можете добавлять вложения

Перейти:  
Для Мосгорсуда, Роскомнадзора и рекламодателей: mosgorsud-torrent[собачка]yandex.ru
 Вход
ppkBB3cker v.2 © 2008-2014 @ PPK
[ Time : 0.059s | 15 Queries | GZIP : Off ]

cron