img image001 image001 image001 image001 image001 image001 image001 image001 image001 image001 image001 image001 image001 image001 image001

Planets Sun Sun Sun
Статистика раздачи
Автор: Снежана | Размер: 4.37 ГБ | Добавлен: 27 июл 2013
Раздают: 142    Качают: 18
Скачать торрент
Скачать торрент
Описание торрента

СообщениеДобавлено: 27 июл 2013 

#77

Информация о фильме
Название: Смурфики
Оригинальное название: The Smurfs
Год выхода: 2011
Жанр: мультфильм, фэнтези, комедия, приключения, семейный
Режиссер: Раджа Госнелл
В ролях: Хэнк Азария, Нил Патрик Харрис, Джейма Мейс, София Вергара, Джонатан Уинтерс, Алан Камминг, Кэти Перри, Фред Армизен, Джордж Лопез, Антон Ельчин

О фильме: По сюжету, спасаясь от злого волшебника Гаргамеля, крошечные смурфики оказываются за пределами родной деревни. Из своего волшебного мира они попадают прямиком в наш мир, а именно в Центральный парк города Нью-Йорк. Теперь маленьким отважным смурфикам предстоит отыскать дорогу домой и не попасть в лапы Гаргамеля.


Выпущено: Columbia Pictures
Продолжительность: 01:42:54
Перевод: Дублированный

Файл
Кодек: x264
Качество: BDRip (источник: Blu-ray Disc)
Видео: 1920x1080 (16:9), 23.976 fps, 5633 kbps
Звук: 48 kHz, AC-3, 6 ch, 448 kbps
Скачать: сэмпл

Скриншоты

Общее
Уникальный идентификатор : 212597103399591612731265771030381234131 (0x9FF0B676F6718D73B1750DB5498287D3)
Полное имя : The.Smurfs.2011.BDRip.1080p.Rus.mkv
Формат : Matroska
Версия формата : Version 2
Размер файла : 4,37 Гбайт
Продолжительность : 1 ч. 42 м.
Общий поток : 6081 Кбит/сек
Дата кодирования : UTC 2011-10-02 09:44:11
Программа кодирования : mkvmerge v4.0.0 ('The Stars were mine') сборка от Jun 6 2010 16:18:42
Библиотека кодирования : libebml v1.0.0 + libmatroska v1.0.0

Видео
Идентификатор : 1
Формат : AVC
Формат/Информация : Advanced Video Codec
Профиль формата : High@L4.1
Параметр CABAC формата : Да
Параметр ReFrames формата : 4 кадра
Идентификатор кодека : V_MPEG4/ISO/AVC
Продолжительность : 1 ч. 42 м.
Битрейт : 5633 Кбит/сек
Ширина : 1920 пикселей
Высота : 1080 пикселей
Соотношение сторон : 16:9
Частота кадров : 23,976 кадра/сек
Цветовое пространство : YUV
Субдискретизация насыщенности : 4:2:0
Битовая глубина : 8 бит
Тип развёртки : Прогрессивная
Бит/(Пиксели*Кадры) : 0.113
Размер потока : 3,96 Гбайт (91%)
Библиотека кодирования : x264 core 118 r2085 8a62835
Настройки программы : cabac=1 / ref=4 / deblock=1:0:0 / analyse=0x3:0x133 / me=umh / subme=10 / psy=1 / psy_rd=1.00:0.10 / mixed_ref=1 / me_range=32 / chroma_me=1 / trellis=2 / 8x8dct=1 / cqm=0 / deadzone=21,11 / fast_pskip=0 / chroma_qp_offset=-3 / threads=12 / sliced_threads=0 / nr=0 / decimate=1 / interlaced=0 / bluray_compat=0 / constrained_intra=0 / bframes=5 / b_pyramid=2 / b_adapt=2 / b_bias=0 / direct=3 / weightb=1 / open_gop=0 / weightp=2 / keyint=240 / keyint_min=24 / scenecut=40 / intra_refresh=0 / rc_lookahead=60 / rc=2pass / mbtree=1 / bitrate=5633 / ratetol=1.0 / qcomp=0.60 / qpmin=0 / qpmax=69 / qpstep=4 / cplxblur=20.0 / qblur=0.5 / ip_ratio=1.40 / aq=1:1.00
Язык : English

Аудио
Идентификатор : 2
Формат : AC-3
Формат/Информация : Audio Coding 3
Расширение режима : CM (complete main)
Идентификатор кодека : A_AC3
Продолжительность : 1 ч. 42 м.
Вид битрейта : Постоянный
Битрейт : 448 Кбит/сек
Каналы : 6 каналов
Расположение каналов : Front: L C R, Side: L R, LFE
Частота : 48,0 КГц
Битовая глубина : 16 бит
Метод сжатия : С потерями
Размер потока : 330 Мбайт (7%)
Язык : Russian

Текст
Идентификатор : 3
Формат : UTF-8
Идентификатор кодека : S_TEXT/UTF8
Идентификатор кодека/Информация : UTF-8 Plain Text
Язык : Russian

Меню
00:00:00.000 : :Chapter 01
00:04:48.705 : :Chapter 02
00:11:22.264 : :Chapter 03
00:16:17.893 : :Chapter 04
00:21:10.435 : :Chapter 05
00:26:33.300 : :Chapter 06
00:33:15.076 : :Chapter 07
00:39:43.130 : :Chapter 08
00:46:04.970 : :Chapter 09
00:53:22.949 : :Chapter 10
00:59:28.439 : :Chapter 11
01:07:26.876 : :Chapter 12
01:15:08.962 : :Chapter 13
01:22:27.734 : :Chapter 14
01:28:31.431 : :Chapter 15
01:34:21.489 : :Chapter 16



   Похожие торренты   Торрент   Размер 
В этой теме нет новых непрочитанных сообщений. Смурфики / The Smurfs (2011) BDRip 1080p | 3D-Video

7 | 2

8.5 ГБ

В этой теме нет новых непрочитанных сообщений. Смурфики / The Smurfs (2011) Blu-Ray Remux 1080p

7 | 6

21.35 ГБ

В этой теме нет новых непрочитанных сообщений. Смурфики / The Smurfs (2011) WEBRip [1080p] by QWERTY | Трейлер

6 | 5

94.98 МБ

В этой теме нет новых непрочитанных сообщений. Смурфики 2 / The Smurfs 2 (2013) BDRip 1080p

359 | 15

7.76 ГБ

В этой теме нет новых непрочитанных сообщений. Смурфики / The Smurfs (2011) BDRip 720p

7 | 6

6.68 ГБ

В этой теме нет новых непрочитанных сообщений. Смурфики / The Smurfs (2011) BDRip-AVC от HQ-ViDEO

42 | 2

2.18 ГБ

В этой теме нет новых непрочитанных сообщений. Смурфики / The Smurfs (2011) BDRip от SMALL-RiP

44 | 4

1.46 ГБ




Вы не можете начинать темы
Вы не можете отвечать на сообщения
Вы не можете редактировать свои сообщения
Вы не можете удалять свои сообщения
Вы не можете добавлять вложения

Перейти:  
Для Мосгорсуда, Роскомнадзора и рекламодателей: mosgorsud-torrent[собачка]yandex.ru
 Вход
ppkBB3cker v.2 © 2008-2014 @ PPK
[ Time : 0.018s | 14 Queries | GZIP : On ]

Торрент трекер RUTOR.IN, Не можете зайти на rutor.org? Какой новый адрес рутор? Какое зеркало рутор? Не работает rutor.org и зеркала? Тогда наш торрент специально для вас. Rutor.in неофициальное зеркало rutor. В случае если у Вас заблокирован rutor или вдруг Вы не можете на него зайти, то Вы без труда сможете скачать бесплатно и без рекламы последние новинки кино, игр, сериалов и прочего у нас, на Rutor.in. Не нужно использовать прокси, чтобы зайти на рутор, достаточно воспользоваться нашим ресурсом. Все новые фильмы, игры, сериалы, книги и музыка за 2013 и 2014 годы через торрент бесплатно. Скачивайте фильмы в хорошем качестве, игры для пк, xbox, playstation без регистрации. У нас вы найдете новые Зарубежные сериалы и Русские сериалы 2013, 2014, 2015 годов. Оставайтесь с нами, качайте любимые фильмы, игры, сериалы, книги и музыку.