img image001 image001 image001 image001 image001 image001 image001 image001 image001 image001 image001 image001 image001 image001 image001

Planets Sun Sun Sun
Статистика раздачи
Автор: Снежана | Размер: 4.37 ГБ | Добавлен: 27 июл 2013
Раздают: 141    Качают: 17
Скачать торрент
Скачать торрент
Описание торрента

СообщениеДобавлено: 27 июл 2013 

#77

Информация о фильме
Название: Король Лев
Оригинальное название: The Lion King
Год выхода: 1994
Жанр: мультфильм, мюзикл, драма, комедия, приключения, семейный
Режиссер: Роджер Аллерс, Роб Минкофф
В ролях: Джереми Айронс, Мэттью Бродерик, Натан Лейн, Эрни Сабелла, Джеймс Эрл Джонс, Мойра Келли, Роуэн Эткинсон, Вупи Голдберг, Чич Марин, Джонатан Тейлор Томас

О фильме: У величественного Короля-Льва Муфасы рождается наследник по имени Симба. Уже в детстве любознательный малыш становится жертвой интриг своего завистливого дяди Шрама, мечтающего о власти.

Симба познаёт горе утраты, предательство и изгнание, но в конце концов обретает верных друзей и находит любимую. Закалённый испытаниями, он в нелёгкой борьбе отвоёвывает своё законное место в «Круге жизни», осознав, что значит быть настоящим Королём.


Выпущено: Walt Disney Pictures
Продолжительность: 01:28:24
Перевод: Дублированный

Файл
Кодек: x264
Качество: BDRip (источник: Blu-ray Disc)
Видео: 1920x1080 (16:9), 23.976 fps, 6247 kbps
Аудио #1: 48 kHz, AC-3, 6 ch, 384 kbps (Дубляж)
Аудио #2: 48 kHz, AC-3, 6 ch, 448 kbps (Гаврилов)
Субтитры: Русские, Английские
Скачать: сэмпл

Скриншоты

Общее
Уникальный идентификатор : 238298551739119049877666170680353589910 (0xB346A1B3CDEFDAA08ABC3F03A7758A96)
Полное имя : The.Lion.King.1994.BDRip.1080p.Rus.mkv
Формат : Matroska
Версия формата : Version 2
Размер файла : 4,37 Гбайт
Продолжительность : 1 ч. 28 м.
Общий поток : 7081 Кбит/сек
Дата кодирования : UTC 2011-10-05 19:57:46
Программа кодирования : mkvmerge v4.0.0 ('The Stars were mine') сборка от Jun 6 2010 16:18:42
Библиотека кодирования : libebml v1.0.0 + libmatroska v1.0.0

Видео
Идентификатор : 1
Формат : AVC
Формат/Информация : Advanced Video Codec
Профиль формата : High@L4.1
Параметр CABAC формата : Да
Параметр ReFrames формата : 4 кадра
Идентификатор кодека : V_MPEG4/ISO/AVC
Продолжительность : 1 ч. 28 м.
Битрейт : 6247 Кбит/сек
Ширина : 1920 пикселей
Высота : 1080 пикселей
Соотношение сторон : 16:9
Частота кадров : 23,976 кадра/сек
Цветовое пространство : YUV
Субдискретизация насыщенности : 4:2:0
Битовая глубина : 8 бит
Тип развёртки : Прогрессивная
Бит/(Пиксели*Кадры) : 0.126
Размер потока : 3,77 Гбайт (86%)
Библиотека кодирования : x264 core 118 r2085 8a62835
Настройки программы : cabac=1 / ref=4 / deblock=1:-3:-3 / analyse=0x3:0x133 / me=umh / subme=10 / psy=1 / psy_rd=1.00:0.00 / mixed_ref=1 / me_range=32 / chroma_me=1 / trellis=2 / 8x8dct=1 / cqm=0 / deadzone=21,11 / fast_pskip=0 / chroma_qp_offset=-2 / threads=12 / sliced_threads=0 / nr=0 / decimate=0 / interlaced=0 / bluray_compat=0 / constrained_intra=0 / bframes=2 / b_pyramid=2 / b_adapt=2 / b_bias=0 / direct=3 / weightb=1 / open_gop=0 / weightp=2 / keyint=240 / keyint_min=24 / scenecut=40 / intra_refresh=0 / rc_lookahead=60 / rc=2pass / mbtree=1 / bitrate=6247 / ratetol=1.0 / qcomp=0.60 / qpmin=0 / qpmax=69 / qpstep=4 / cplxblur=20.0 / qblur=0.5 / ip_ratio=1.40 / aq=1:1.00
Язык : English

Аудио #1
Идентификатор : 2
Формат : AC-3
Формат/Информация : Audio Coding 3
Расширение режима : CM (complete main)
Идентификатор кодека : A_AC3
Продолжительность : 1 ч. 28 м.
Вид битрейта : Постоянный
Битрейт : 384 Кбит/сек
Каналы : 6 каналов
Расположение каналов : Front: L C R, Side: L R, LFE
Частота : 48,0 КГц
Битовая глубина : 16 бит
Метод сжатия : С потерями
Размер потока : 243 Мбайт (5%)
Заголовок : Дубляж
Язык : Russian

Аудио #2
Идентификатор : 3
Формат : AC-3
Формат/Информация : Audio Coding 3
Расширение режима : CM (complete main)
Идентификатор кодека : A_AC3
Продолжительность : 1 ч. 28 м.
Вид битрейта : Постоянный
Битрейт : 448 Кбит/сек
Каналы : 6 каналов
Расположение каналов : Front: L C R, Side: L R, LFE
Частота : 48,0 КГц
Битовая глубина : 16 бит
Метод сжатия : С потерями
Размер потока : 283 Мбайт (6%)
Заголовок : Гаврилов
Язык : Russian

Текст #1
Идентификатор : 4
Формат : UTF-8
Идентификатор кодека : S_TEXT/UTF8
Идентификатор кодека/Информация : UTF-8 Plain Text
Язык : Russian

Текст #2
Идентификатор : 5
Формат : UTF-8
Идентификатор кодека : S_TEXT/UTF8
Идентификатор кодека/Информация : UTF-8 Plain Text
Язык : English

Меню
00:00:00.000 : :Chapter 01
00:04:40.071 : :Chapter 02
00:08:10.407 : :Chapter 03
00:11:28.980 : :Chapter 04
00:14:09.557 : :Chapter 05
00:17:51.028 : :Chapter 06
00:22:54.748 : :Chapter 07
00:25:36.118 : :Chapter 08
00:30:24.197 : :Chapter 09
00:35:52.150 : :Chapter 10
00:40:14.078 : :Chapter 11
00:41:14.430 : :Chapter 12
00:44:16.946 : :Chapter 13
00:48:20.564 : :Chapter 14
00:50:07.213 : :Chapter 15
00:53:14.775 : :Chapter 16
00:57:50.842 : :Chapter 17
01:00:56.570 : :Chapter 18
01:02:32.332 : :Chapter 19
01:08:49.625 : :Chapter 20
01:12:41.023 : :Chapter 21
01:16:42.306 : :Chapter 22
01:20:45.132 : :Chapter 23
01:23:23.874 : :Chapter 24
x264 [info]: frame I:1344 Avg QP:11.84 size:210087
x264 [info]: frame P:51751 Avg QP:15.81 size: 54369
x264 [info]: frame B:74062 Avg QP:17.56 size: 14118



   Похожие торренты   Торрент   Размер 
В этой теме нет новых непрочитанных сообщений. Король Лев / The Lion King (1994) BDRip 1080p | 60 fps | D, A

251 | 30

7.94 ГБ

В этой теме нет новых непрочитанных сообщений. Король Лев / The Lion King (1994) BDRip 1080p

16 | 7

10.82 ГБ

В этой теме нет новых непрочитанных сообщений. Король лев / The Lion King (1994) BDRip 1080p от marcury

55 | 5

12.52 ГБ

В этой теме нет новых непрочитанных сообщений. Король Лев / The Lion King (1994) BDRip 1080p от Freeisland

177 | 4

8.9 ГБ

В этой теме нет новых непрочитанных сообщений. Король Лев 3D / The Lion King (1994) BDRip 1080p | 3D-Video

69 | 15

5.17 ГБ

В этой теме нет новых непрочитанных сообщений. Король Лев 3D / The Lion King (1994) BDRip 1080p | 3D-Video / Анаглиф

45 | 6

5.04 ГБ

В этой теме нет новых непрочитанных сообщений. Король Лев / The Lion King (1994) BDRip-AVC | D, P2, A

36 | 0

2.19 ГБ




Вы не можете начинать темы
Вы не можете отвечать на сообщения
Вы не можете редактировать свои сообщения
Вы не можете удалять свои сообщения
Вы не можете добавлять вложения

Перейти:  
Для Мосгорсуда, Роскомнадзора и рекламодателей: mosgorsud-torrent[собачка]yandex.ru
 Вход
ppkBB3cker v.2 © 2008-2014 @ PPK
[ Time : 0.057s | 13 Queries | GZIP : Off ]
CGP output time : 0.123s | 5 Queries | GZIP : Off

Торрент трекер RUTOR.IN, Не можете зайти на rutor.org? Какой новый адрес рутор? Какое зеркало рутор? Не работает rutor.org и зеркала? Тогда наш торрент специально для вас. Rutor.in неофициальное зеркало rutor. В случае если у Вас заблокирован rutor или вдруг Вы не можете на него зайти, то Вы без труда сможете скачать бесплатно и без рекламы последние новинки кино, игр, сериалов и прочего у нас, на Rutor.in. Не нужно использовать прокси, чтобы зайти на рутор, достаточно воспользоваться нашим ресурсом. Все новые фильмы, игры, сериалы, книги и музыка за 2013 и 2014 годы через торрент бесплатно. Скачивайте фильмы в хорошем качестве, игры для пк, xbox, playstation без регистрации. У нас вы найдете новые Зарубежные сериалы и Русские сериалы 2013, 2014, 2015 годов. Оставайтесь с нами, качайте любимые фильмы, игры, сериалы, книги и музыку.