img image001 image001 image001 image001 image001 image001 image001 image001 image001 image001 image001 image001 image001 image001 image001

Planets Sun Sun Sun
Статистика раздачи
Автор: Снежана | Размер: 6 ГБ | Добавлен: 27 июл 2013
Раздают: 8    Качают: 4
Скачать торрент
Скачать торрент
Описание торрента

СообщениеДобавлено: 27 июл 2013 

#77

Информация о фильме
Название: Тачки 2
Оригинальное название: Cars 2
Год выхода: 2011
Жанр: Мультфильм, комедия, приключения, семейный
Режиссер: Джон Лассетер, Брэд Льюис
В ролях: Оуэн Уилсон, Ларри Кейбл Гай, Майкл Кейн, Эмили Мортимер, Эдди Иззард, Джон Туртурро, Брент Мусбургер, Джо Мантенья, Томас Кречманн, Питер Джекобсон

О фильме:
Молния МакКуин и его друг Мэтр отправляются в международное путешествие — когда МакКуин получает шанс участвовать в соревнованиях для самых быстрых машин в мире, Мировом Гран-При. Этапы этих престижных гонок заведут друзей в Токио, на набережные Парижа, на побережье Италии, и на улицы туманного Лондона.


Страна: США
Студия: Walt Disney Pictures
Продолжительность: 01:46:16
Перевод: Дублированный, Дублированный |Украинский, Line|, Оригинал

Релиз группы:
Рип от: FFmpeg
Файл
Кодек: x264
Качество: BDRip 1080p [рип с Blu-Ray Remux 1080p | HDME]
Видео: x264, 1920x800 pix., 5 684 Kbps Kbps, 0.154 bit/pix.
Аудио 1: 48 kHz, AC3, 3/2 (L,C,R,l,r) + LFE ch, ~448.00 kbps avg | Дубляж, RUS
Аудио 2: 48 kHz, AC3, 3/2 (L,C,R,l,r) + LFE ch, ~384.00 kbps avg | Дубляж, UKR
Аудио 3: 48 kHz, DTS, 3/2 (L,C,R,l,r) + LFE ch, ~1510.00 kbps avg | Оригинал
Субтитры: Русские, Английские (full, SDH)

x264 [info]: frame I:1791 Avg QP:13.06 size:216262
x264 [info]: frame P:49268 Avg QP:16.33 size: 55285
x264 [info]: frame B:102903 Avg QP:19.30 size: 14102
x264 [info]: consecutive B-frames: 6.4% 6.9% 40.0% 21.8% 12.3% 12.6%
x264 [info]: mb I I16..4: 11.6% 61.7% 26.7%
x264 [info]: mb P I16..4: 4.8% 14.4% 2.3% P16..4: 38.1% 20.2% 10.7% 0.0% 0.0% skip: 9.4%
x264 [info]: mb B I16..4: 0.9% 1.8% 0.3% B16..8: 35.1% 7.5% 1.6% direct: 4.0% skip:48.7% L0:39.7% L1:46.6% BI:13.7%
x264 [info]: 8x8 transform intra:64.9% inter:54.8%
x264 [info]: direct mvs spatial:92.0% temporal:8.0%
x264 [info]: coded y,uvDC,uvAC intra: 66.5% 75.3% 49.7% inter: 17.4% 21.6% 6.0%
x264 [info]: i16 v,h,dc,p: 30% 31% 10% 29%
x264 [info]: i8 v,h,dc,ddl,ddr,vr,hd,vl,hu: 12% 27% 12% 5% 7% 7% 10% 7% 12%
x264 [info]: i4 v,h,dc,ddl,ddr,vr,hd,vl,hu: 14% 25% 11% 5% 10% 8% 11% 6% 10%
x264 [info]: i8c dc,h,v,p: 35% 36% 17% 12%
x264 [info]: Weighted P-Frames: Y:1.2% UV:0.9%
x264 [info]: ref P L0: 64.3% 10.2% 14.9% 8.0% 2.6% 0.0%
x264 [info]: ref B L0: 86.3% 10.8% 2.9%
x264 [info]: ref B L1: 90.3% 9.7%
Format : Matroska
File size : 6.00 GiB
Duration : 1h 47mn
Overall bit rate : 8 028 Kbps
Movie name : Reliz by FFmpeg
Writing application : mkvmerge v4.9.1 ('Ich will') сборка от Jul 11 2011 23:53:15
Writing library : libebml v1.2.1 + libmatroska v1.1.1
Video #1
ID : 1
Format : AVC
Format/Info : Advanced Video Codec
Format profile : High@L4.1
Format settings, CABAC : Yes
Format settings, ReFrames : 4 frames
Codec ID : V_MPEG4/ISO/AVC
Duration : 1h 47mn
Bit rate : 5 684 Kbps
Width : 1 920 pixels
Height : 800 pixels
Display aspect ratio : 2.40:1
Frame rate : 23.976 fps
Color space : YUV
Chroma subsampling : 4:2:0
Bit depth : 8 bits
Scan type : Progressive
Bits/(Pixel*Frame) : 0.154
Stream size : 4.13 GiB (69%)
Writing library : x264 core 116 r2044 392e762
Encoding settings : cabac=1 / ref=4 / deblock=1:-1:-1 / analyse=0x3:0x113 / me=umh / subme=9 / psy=1 / psy_rd=1.00:0.00 / mixed_ref=1 / me_range=32 / chroma_me=1 / trellis=2 / 8x8dct=1 / cqm=0 / deadzone=21,11 / fast_pskip=0 / chroma_qp_offset=-2 / threads=6 / sliced_threads=0 / nr=0 / decimate=1 / interlaced=0 / bluray_compat=0 / constrained_intra=0 / bframes=5 / b_pyramid=2 / b_adapt=2 / b_bias=0 / direct=3 / weightb=1 / open_gop=0 / weightp=2 / keyint=240 / keyint_min=24 / scenecut=40 / intra_refresh=0 / rc_lookahead=60 / rc=2pass / mbtree=1 / bitrate=5684 / ratetol=1.0 / qcomp=0.60 / qpmin=0 / qpmax=69 / qpstep=4 / cplxblur=20.0 / qblur=0.5 / ip_ratio=1.40 / aq=1:1.00
Language : English
Audio #2
ID : 2
Format : AC-3
Format/Info : Audio Coding 3
Mode extension : CM (complete main)
Codec ID : A_AC3
Duration : 1h 47mn
Bit rate mode : Constant
Bit rate : 448 Kbps
Channel(s) : 6 channels
Channel positions : Front: L C R, Side: L R, LFE
Sampling rate : 48.0 KHz
Bit depth : 16 bits
Compression mode : Lossy
Stream size : 343 MiB (6%)
Title : DD 5.1 @ 448 Kbps - Dub
Language : Russian
Audio #3
ID : 3
Format : AC-3
Format/Info : Audio Coding 3
Format profile : Dolby Digital
Mode extension : CM (complete main)
Codec ID : A_AC3
Duration : 1h 47mn
Bit rate mode : Constant
Bit rate : 384 Kbps
Channel(s) : 2 channels
Channel positions : Front: L R
Sampling rate : 48.0 KHz
Bit depth : 16 bits
Compression mode : Lossy
Stream size : 294 MiB (5%)
Title : Dub-Line
Language : Ukrainian
Audio #4
ID : 4
Format : DTS
Format/Info : Digital Theater Systems
Codec ID : A_DTS
Duration : 1h 47mn
Bit rate mode : Constant
Bit rate : 1 510 Kbps
Channel(s) : 6 channels
Channel positions : Front: L C R, Side: L R, LFE
Sampling rate : 48.0 KHz
Bit depth : 24 bits
Compression mode : Lossy
Stream size : 1.13 GiB (19%)
Title : Original
Language : English
Text #5
ID : 5
Format : UTF-8
Codec ID : S_TEXT/UTF8
Codec ID/Info : UTF-8 Plain Text
Title : Full
Language : Russian
Text #6
ID : 6
Format : UTF-8
Codec ID : S_TEXT/UTF8
Codec ID/Info : UTF-8 Plain Text
Title : Full
Language : English
Text #7
ID : 7
Format : UTF-8
Codec ID : S_TEXT/UTF8
Codec ID/Info : UTF-8 Plain Text
Title : SDH
Language : English
*Из уважения к Полу Ньюману, который умер в 2008 году, персонаж Дока Хадсона не включен во второй фильм. Чтобы Док Хадсон был упомянут в фильме, в его честь решили назвать кубок Большого Поршня. Также сообщается, что Док умер.
*Когда Мэтр, Фин МакМиссл и Холли Делюкс были во Франции, можно было заметить ресторан «Гюсто» (отсылка к другому мультфильму Pixar — «Рататуй»). Только сам Гюсто был в авто-прототипе (он очень похож на Мэтра).
*Среди подручных Профессора Ц можно заметить группу автомобилей ЗАЗ 968, а точнее его экспортный вариант Jalta 968.
*Джон Лассетер задумал историю для сиквела ещё в 2006 году, когда он был в Европе, продвигая первый мультфильм.




   Похожие торренты   Торрент   Размер 
В этой теме нет новых непрочитанных сообщений. Тачки 2 / Cars 2 (2011) BDRip 720p от DHT-Movies

2 | 6

4.37 ГБ

В этой теме нет новых непрочитанных сообщений. Тачки / Тачки 2 / Мультачки: Байки Мэтра / Cars / Cars 2 / Mater's Tall Tales (2006-2011) 3xDVD9 от Youtracker | D | Лицензия

28 | 28

21.76 ГБ

В этой теме нет новых непрочитанных сообщений. Тачки 2 / Cars 2 (2011) BDRip 1080p

390 | 16

4.37 ГБ

В этой теме нет новых непрочитанных сообщений. Тачки 2 3D / Cars 2 3D (2011) BDRip 1080p | 3D-Video

15 | 7

7.97 ГБ

В этой теме нет новых непрочитанных сообщений. Тачки 2 / Cars 2 (2011) BDRip 1080p от Youtracker | 3D-Video

34 | 9

10.04 ГБ

В этой теме нет новых непрочитанных сообщений. Тачки 2 / Cars 2 (2011) BDRip 1080p от Leonardo and Scarabey | Лицензия

392 | 36

5.29 ГБ

В этой теме нет новых непрочитанных сообщений. Тачки: Дилогия / Cars: Dilogy (2006-2011) BDRip 1080p от NoLimits-Team

11 | 4

15.9 ГБ




Вы не можете начинать темы
Вы не можете отвечать на сообщения
Вы не можете редактировать свои сообщения
Вы не можете удалять свои сообщения
Вы не можете добавлять вложения

Перейти:  
Для Мосгорсуда, Роскомнадзора и рекламодателей: mosgorsud-torrent[собачка]yandex.ru
 Вход
ppkBB3cker v.2 © 2008-2014 @ PPK
[ Time : 0.049s | 14 Queries | GZIP : Off ]

Торрент трекер RUTOR.IN, Не можете зайти на rutor.org? Какой новый адрес рутор? Какое зеркало рутор? Не работает rutor.org и зеркала? Тогда наш торрент специально для вас. Rutor.in неофициальное зеркало rutor. В случае если у Вас заблокирован rutor или вдруг Вы не можете на него зайти, то Вы без труда сможете скачать бесплатно и без рекламы последние новинки кино, игр, сериалов и прочего у нас, на Rutor.in. Не нужно использовать прокси, чтобы зайти на рутор, достаточно воспользоваться нашим ресурсом. Все новые фильмы, игры, сериалы, книги и музыка за 2013 и 2014 годы через торрент бесплатно. Скачивайте фильмы в хорошем качестве, игры для пк, xbox, playstation без регистрации. У нас вы найдете новые Зарубежные сериалы и Русские сериалы 2013, 2014, 2015 годов. Оставайтесь с нами, качайте любимые фильмы, игры, сериалы, книги и музыку.