img image001 image001 image001 image001 image001 image001 image001 image001 image001 image001 image001 image001 image001 image001 image001

Planets Sun Sun Sun
Статистика раздачи
Автор: Снежана | Размер: 4.37 ГБ | Добавлен: 27 июл 2013
Раздают: 219    Качают: 21
Скачать торрент
Скачать торрент
Описание торрента

СообщениеДобавлено: 27 июл 2013 

#77

Информация о фильме
Название: Мадагаскар
Оригинальное название: Madagascar
Год выхода: 2005
Жанр: мультфильм, комедия, приключения, семейный
Режиссер: Эрик Дарнелл, Том МакГрат
В ролях: Бен Стиллер, Крис Рок, Дэвид Швиммер, Джада Пинкетт Смит, Саша Барон Коэн, Седрик «Развлекатель», Энди Рихтер, Том МакГрат, Кристофер Найтс, Крис Миллер

О фильме: Четверо изнеженных животных из Центрального зоопарка в Нью-Йорке — лев Алекс, зебра Марти, жираф Мелман и гиппопотамиха Глория — решаются на побег. Оказавшись после кораблекрушения на экзотическом острове Мадагаскар, населенном лемурами и поедающими их фоссами, путешественники с ужасом понимают, что с городскими привычками им придется распрощаться.

Здесь нет людей, любимых клеток, вкусной кормежки. Начинается шоу «Последний герой» только с животными — нашим друзьям нужно выжить в непривычной среде обитания, где на каждом шагу подстерегает опасность…


Выпущено: DreamWorks Animation
Продолжительность: 01:25:58
Перевод: Дублированный

Файл
Кодек: x264
Качество: BDRip (источник: Blu-ray Disc)
Видео: 1920x1080 (16:9), 23.976 fps, 6640 kbps
Звук: 48 kHz, AC-3, 6 ch, 640 kbps
Субтитры: Русские, Английские
Скачать: сэмпл

Скриншоты

Общее
Уникальный идентификатор : 254574380685634034153915164154201744462 (0xBF853E064CCA6AF5B7FB58163061A44E)
Полное имя : Madagascar.2005.BDRip.1080p.Rus.mkv
Формат : Matroska
Версия формата : Version 2
Размер файла : 4,37 Гбайт
Продолжительность : 1 ч. 25 м.
Общий поток : 7281 Кбит/сек
Дата кодирования : UTC 2011-10-22 07:20:15
Программа кодирования : mkvmerge v4.0.0 ('The Stars were mine') сборка от Jun 6 2010 16:18:42
Библиотека кодирования : libebml v1.0.0 + libmatroska v1.0.0

Видео
Идентификатор : 1
Формат : AVC
Формат/Информация : Advanced Video Codec
Профиль формата : High@L4.1
Параметр CABAC формата : Да
Параметр ReFrames формата : 4 кадра
Идентификатор кодека : V_MPEG4/ISO/AVC
Продолжительность : 1 ч. 25 м.
Битрейт : 6640 Кбит/сек
Ширина : 1920 пикселей
Высота : 1080 пикселей
Соотношение сторон : 16:9
Частота кадров : 23,976 кадра/сек
Цветовое пространство : YUV
Субдискретизация насыщенности : 4:2:0
Битовая глубина : 8 бит
Тип развёртки : Прогрессивная
Бит/(Пиксели*Кадры) : 0.134
Размер потока : 3,90 Гбайт (89%)
Библиотека кодирования : x264 core 118 r2085 8a62835
Настройки программы : cabac=1 / ref=4 / deblock=1:0:0 / analyse=0x3:0x133 / me=umh / subme=10 / psy=1 / psy_rd=1.00:0.00 / mixed_ref=1 / me_range=32 / chroma_me=1 / trellis=2 / 8x8dct=1 / cqm=0 / deadzone=21,11 / fast_pskip=0 / chroma_qp_offset=-2 / threads=12 / sliced_threads=0 / nr=0 / decimate=1 / interlaced=0 / bluray_compat=0 / constrained_intra=0 / bframes=3 / b_pyramid=2 / b_adapt=2 / b_bias=0 / direct=3 / weightb=1 / open_gop=0 / weightp=2 / keyint=240 / keyint_min=24 / scenecut=40 / intra_refresh=0 / rc_lookahead=60 / rc=2pass / mbtree=1 / bitrate=6640 / ratetol=1.0 / qcomp=0.60 / qpmin=0 / qpmax=69 / qpstep=4 / cplxblur=20.0 / qblur=0.5 / ip_ratio=1.40 / aq=1:1.00
Язык : English

Аудио
Идентификатор : 2
Формат : AC-3
Формат/Информация : Audio Coding 3
Расширение режима : CM (complete main)
Идентификатор кодека : A_AC3
Продолжительность : 1 ч. 25 м.
Вид битрейта : Постоянный
Битрейт : 640 Кбит/сек
Каналы : 6 каналов
Расположение каналов : Front: L C R, Side: L R, LFE
Частота : 48,0 КГц
Битовая глубина : 16 бит
Метод сжатия : С потерями
Размер потока : 394 Мбайт (9%)
Язык : Russian

Текст #1
Идентификатор : 3
Формат : UTF-8
Идентификатор кодека : S_TEXT/UTF8
Идентификатор кодека/Информация : UTF-8 Plain Text
Язык : Russian

Текст #2
Идентификатор : 4
Формат : UTF-8
Идентификатор кодека : S_TEXT/UTF8
Идентификатор кодека/Информация : UTF-8 Plain Text
Язык : English

Меню
00:00:00.000 : :Chapter 01
00:05:34.167 : :Chapter 02
00:08:35.473 : :Chapter 03
00:12:40.092 : :Chapter 04
00:17:56.867 : :Chapter 05
00:22:32.684 : :Chapter 06
00:26:56.615 : :Chapter 07
00:30:57.856 : :Chapter 08
00:35:30.878 : :Chapter 09
00:40:06.570 : :Chapter 10
00:44:34.797 : :Chapter 11
00:48:52.346 : :Chapter 12
00:52:18.844 : :Chapter 13
00:57:15.557 : :Chapter 14
01:02:16.733 : :Chapter 15
01:06:56.554 : :Chapter 16
01:12:37.102 : :Chapter 17
01:16:20.117 : :Chapter 18
01:18:18.652 : :Chapter 19
01:19:10.036 : :Chapter 20
01:25:57.861 : :Chapter 21



   Похожие торренты   Торрент   Размер 
В этой теме нет новых непрочитанных сообщений. Мадагаскар 1, 2 / Madagascar / Madagascar: Escape 2 Africa (2005-2008) 2xDVD9, DVD5 от Youtracker | D | Лицензия

150 | 5

15.39 ГБ

В этой теме нет новых непрочитанных сообщений. Мадагаскар / Madagascar (2005) BDRip-AVC | iPad

80 | 4

1.67 ГБ

В этой теме нет новых непрочитанных сообщений. Мадагаскар / Madagascar (2005) BDRip от HELLYWOOD

46 | 9

2.15 ГБ

В этой теме нет новых непрочитанных сообщений. Мадагаскар / Madagascar (2005) BDRip от HQCLUB

541 | 51

1.72 ГБ

В этой теме нет новых непрочитанных сообщений. Мадагаскар / Madagascar (2005) BDRip от RAMpage CHG

31 | 6

701.68 МБ

В этой теме нет новых непрочитанных сообщений. Мадагаскар / Madagascar (2005) BDRip 720p

76 | 6

4.38 ГБ

В этой теме нет новых непрочитанных сообщений. Мадагаскар / Madagascar (2005) BDRip от HQ-ViDEO

1132 | 40

1.46 ГБ




Вы не можете начинать темы
Вы не можете отвечать на сообщения
Вы не можете редактировать свои сообщения
Вы не можете удалять свои сообщения
Вы не можете добавлять вложения

Перейти:  
Для Мосгорсуда, Роскомнадзора и рекламодателей: mosgorsud-torrent[собачка]yandex.ru
 Вход
ppkBB3cker v.2 © 2008-2014 @ PPK
[ Time : 0.102s | 15 Queries | GZIP : Off ]
CGP output time : 0.025s | 5 Queries | GZIP : Off

Торрент трекер RUTOR.IN, Не можете зайти на rutor.org? Какой новый адрес рутор? Какое зеркало рутор? Не работает rutor.org и зеркала? Тогда наш торрент специально для вас. Rutor.in неофициальное зеркало rutor. В случае если у Вас заблокирован rutor или вдруг Вы не можете на него зайти, то Вы без труда сможете скачать бесплатно и без рекламы последние новинки кино, игр, сериалов и прочего у нас, на Rutor.in. Не нужно использовать прокси, чтобы зайти на рутор, достаточно воспользоваться нашим ресурсом. Все новые фильмы, игры, сериалы, книги и музыка за 2013 и 2014 годы через торрент бесплатно. Скачивайте фильмы в хорошем качестве, игры для пк, xbox, playstation без регистрации. У нас вы найдете новые Зарубежные сериалы и Русские сериалы 2013, 2014, 2015 годов. Оставайтесь с нами, качайте любимые фильмы, игры, сериалы, книги и музыку.