img image001 image001 image001 image001 image001 image001 image001 image001 image001 image001 image001 image001 image001 image001 image001

Planets Sun Sun Sun
Статистика раздачи
Автор: Снежана | Размер: 4.37 ГБ | Добавлен: 27 июл 2013
Раздают: 2    Качают: 6
Скачать торрент
Скачать торрент
Описание торрента

СообщениеДобавлено: 27 июл 2013 

Тачки 2 / Cars 2 (2011) BDRip [720p]
от DHT-Movies



Название: Тачки 2
Оригинальное название: Cars 2
Год выхода: 2011
Жанр: Мультфильм, комедия, приключения, семейный
Режиссер: Джон Лассетер, Брэд Льюис
В ролях: Оуэн Уилсон, Ларри Кейбл Гай, Майкл Кейн, Эмили Мортимер, Эдди Иззард, Джон Туртурро, Брент Мусбургер, Джо Мантенья, Томас Кречманн, Питер Джекобсон

Сюжет фильма:
Молния МакКуин и его друг Мэтр отправляются в международное путешествие — когда МакКуин получает шанс участвовать в соревнованиях для самых быстрых машин в мире, Мировом Гран-При. Этапы этих престижных гонок заведут друзей в Токио, на набережные Парижа, на побережье Италии, и на улицы туманного Лондона...





Выпущено: США | Walt Disney Pictures, Pixar Animation Studios
Продолжительность: 01:47:01
Перевод: Дубляж (Профессиональный) + Украинский (Дубляж) + Оригинальная звуковая дорожка
Субтитры: Russian (voronine); English (Full, SDH).srt

Релиз группы: | by Ackles


Качество: BDRip [720p] (Source: BlueBird / Blu-Ray / 1080p)
Формат: MKV
Видео кодек: H.264
Видео: AVC; 1280x536 (2:35) pix; ~4759 Kbps; 23.976 fps; x264(L4.1); 0.289 bits/pixel
Аудио (Русский): 48 kHz, AC3 Dolby Digital, 6 channels, ~448 kbps | (Дубляж)
Аудио (Украинский): 48 kHz, AC3 Dolby Digital, 2 channels, ~192 kbps | (Дубляж)
Аудио (Английский): 48 kHz, AC3 Dolby Digital, 6 channels, ~448 kbps | (Оригинал)
Сохранены оригинальные чаптеры как на Blu-Ray.

x264 [info]: frame I:1788 Avg QP:10.21 size:175223
x264 [info]: frame P:43557 Avg QP:13.72 size: 51074
x264 [info]: frame B:108616 Avg QP:18.03 size: 11802
x264 [info]: consecutive B-frames: 5.5% 6.0% 19.7% 29.8% 16.7% 18.8% 3.7%
x264 [info]: mb I I16..4: 5.5% 52.0% 42.5%
x264 [info]: mb P I16..4: 1.4% 12.9% 3.2% P16..4: 29.2% 26.0% 19.3% 0.0% 0.0% skip: 8.1%
x264 [info]: mb B I16..4: 0.3% 1.7% 0.4% B16..8: 31.6% 13.6% 4.6% direct: 5.4% skip:42.4% L0:39.7% L1:39.2% BI:21.1%
x264 [info]: 8x8 transform intra:70.0% inter:49.9%
x264 [info]: coded y,uvDC,uvAC intra: 84.5% 83.3% 65.4% inter: 26.1% 22.7% 12.1%
x264 [info]: i16 v,h,dc,p: 31% 26% 8% 36%
x264 [info]: i8 v,h,dc,ddl,ddr,vr,hd,vl,hu: 15% 26% 10% 6% 7% 6% 10% 7% 13%
x264 [info]: i4 v,h,dc,ddl,ddr,vr,hd,vl,hu: 14% 22% 6% 6% 11% 9% 12% 7% 12%
x264 [info]: i8c dc,h,v,p: 35% 37% 16% 13%
x264 [info]: Weighted P-Frames: Y:1.6% UV:1.1%
x264 [info]: ref P L0: 59.3% 10.7% 12.9% 7.0% 4.5% 4.7% 0.9% 0.0%
x264 [info]: ref B L0: 78.5% 11.1% 7.0% 2.3% 1.1%
x264 [info]: ref B L1: 90.8% 9.2%
x264 [info]: kb/s:4758.81
Format : Matroska
File size : 4.37 GiB
Duration : 1h 47mn
Overall bit rate : 5 849 Kbps
Encoded date : UTC 2011-10-23 10:15:36
Writing application : mkvmerge v4.6.0 ('Still Crazy After All These Years') сборка от Apr 1 2011 21:01:49
Writing library : libebml v1.2.0 + libmatroska v1.1.0

Video
ID : 1
Format : AVC
Format/Info : Advanced Video Codec
Format profile : High@L4.1
Format settings, CABAC : Yes
Format settings, ReFrames : 6 frames
Format settings, GOP : M=1, N=16
Codec ID : V_MPEG4/ISO/AVC
Duration : 1h 47mn
Bit rate : 4 759 Kbps
Width : 1 280 pixels
Height : 536 pixels
Display aspect ratio : 2.35:1
Frame rate : 23.976 fps
Color space : YUV
Chroma subsampling : 4:2:0
Bit depth : 8 bits
Scan type : Progressive
Bits/(Pixel*Frame) : 0.289
Stream size : 3.47 GiB (79%)
Title : MKV | x264 | DHT-Movies
Writing library : x264 core 115 r1937 aa21558
Encoding settings : cabac=1 / ref=6 / deblock=1:-1:-1 / analyse=0x3:0x113 / me=umh / subme=10 / psy=1 / psy_rd=1.00:0.00 / mixed_ref=1 / me_range=32 / chroma_me=1 / trellis=2 / 8x8dct=1 / cqm=0 / deadzone=21,11 / fast_pskip=1 / chroma_qp_offset=-1 / threads=3 / sliced_threads=0 / nr=0 / decimate=1 / interlaced=0 / bluray_compat=0 / constrained_intra=0 / bframes=6 / b_pyramid=2 / b_adapt=2 / b_bias=0 / direct=1 / weightb=1 / open_gop=0 / weightp=2 / keyint=240 / keyint_min=24 / scenecut=40 / intra_refresh=0 / rc_lookahead=60 / rc=2pass / mbtree=1 / bitrate=4759 / ratetol=1.0 / qcomp=0.60 / qpmin=0 / qpmax=69 / qpstep=4 / cplxblur=20.0 / qblur=0.5 / ip_ratio=1.40 / aq=1:1.00
Language : English

Audio #1
ID : 2
Format : AC-3
Format/Info : Audio Coding 3
Mode extension : CM (complete main)
Codec ID : A_AC3
Duration : 1h 47mn
Bit rate mode : Constant
Bit rate : 448 Kbps
Channel(s) : 6 channels
Channel positions : Front: L C R, Side: L R, LFE
Sampling rate : 48.0 KHz
Bit depth : 16 bits
Compression mode : Lossy
Stream size : 343 MiB (8%)
Title : AC3 | RUS | 448
Language : Russian

Audio #2
ID : 3
Format : AC-3
Format/Info : Audio Coding 3
Mode extension : CM (complete main)
Codec ID : A_AC3
Duration : 1h 47mn
Bit rate mode : Constant
Bit rate : 448 Kbps
Channel(s) : 6 channels
Channel positions : Front: L C R, Side: L R, LFE
Sampling rate : 48.0 KHz
Bit depth : 16 bits
Compression mode : Lossy
Stream size : 343 MiB (8%)
Title : AC3 | ENG | 448
Language : English

Audio #3
ID : 4
Format : AC-3
Format/Info : Audio Coding 3
Mode extension : CM (complete main)
Codec ID : A_AC3
Duration : 1h 47mn
Bit rate mode : Constant
Bit rate : 192 Kbps
Channel(s) : 2 channels
Channel positions : Front: L R
Sampling rate : 48.0 KHz
Bit depth : 16 bits
Compression mode : Lossy
Stream size : 147 MiB (3%)
Title : AC3 | Ukr | 192
Language : Ukrainian

Text #1
ID : 5
Format : UTF-8
Codec ID : S_TEXT/UTF8
Codec ID/Info : UTF-8 Plain Text
Title : Sub | Rus
Language : Russian

Text #2
ID : 6
Format : UTF-8
Codec ID : S_TEXT/UTF8
Codec ID/Info : UTF-8 Plain Text
Title : Sub | ENG
Language : English

Text #3
ID : 7
Format : UTF-8
Codec ID : S_TEXT/UTF8
Codec ID/Info : UTF-8 Plain Text
Title : Sub | Eng | SDH

Menu
00:00:00.000 : en:00:00:00.000
00:01:29.172 : en:00:01:29.172
00:04:47.579 : en:00:04:47.579
00:07:43.672 : en:00:07:43.672
00:12:07.894 : en:00:12:07.894
00:17:48.943 : en:00:17:48.943
00:20:01.325 : en:00:20:01.325
00:22:51.537 : en:00:22:51.537
00:26:34.634 : en:00:26:34.634
00:30:30.161 : en:00:30:30.161
00:32:41.960 : en:00:32:41.960
00:34:13.509 : en:00:34:13.509
00:37:15.566 : en:00:37:15.566
00:40:44.150 : en:00:40:44.150
00:42:53.154 : en:00:42:53.154
00:46:18.567 : en:00:46:18.567
00:46:57.940 : en:00:46:57.940
00:49:48.527 : en:00:49:48.527
00:53:56.399 : en:00:53:56.399
00:54:57.252 : en:00:54:57.252
00:57:36.202 : en:00:57:36.202
00:59:27.730 : en:00:59:27.730
01:02:16.941 : en:01:02:16.941
01:05:56.285 : en:01:05:56.285
01:12:31.764 : en:01:12:31.764
01:14:05.899 : en:01:14:05.899
01:15:24.186 : en:01:15:24.186
01:21:12.992 : en:01:21:12.992
01:23:22.247 : en:01:23:22.247
01:29:06.924 : en:01:29:06.924
01:31:48.127 : en:01:31:48.127
01:32:41.222 : en:01:32:41.222
01:38:18.600 : en:01:38:18.600




   Похожие торренты   Торрент   Размер 
В этой теме нет новых непрочитанных сообщений. Тачки 2 / Cars 2 (2011) BDRip 1080p by DHT-Movies

8 | 4

6 ГБ

В этой теме нет новых непрочитанных сообщений. Тачки / Тачки 2 / Мультачки: Байки Мэтра / Cars / Cars 2 / Mater's Tall Tales (2006-2011) 3xDVD9 от Youtracker | D | Лицензия

28 | 28

21.76 ГБ

В этой теме нет новых непрочитанных сообщений. Тачки 2 / Cars 2 (2011) BDRip 720p

139 | 6

5.2 ГБ

В этой теме нет новых непрочитанных сообщений. Тачки 2 / Cars 2 (2011) BDRip 720p от HELLYWOOD | Лицензия

457 | 67

5.06 ГБ

В этой теме нет новых непрочитанных сообщений. Тачки 2 / Cars 2 (2011) BDRip 720p | 3D-Video / Анаглиф

105 | 9

2.36 ГБ

В этой теме нет новых непрочитанных сообщений. Тачки 2 / Cars 2 (2011) BDRip 720p от FireBit | Лицензия R5

28 | 7

3.35 ГБ

В этой теме нет новых непрочитанных сообщений. Тачки 2 / Cars 2 (2011) BDRip 720p от Leonardo and Scarabey | Лицензия

1394 | 82

3.03 ГБ




Вы не можете начинать темы
Вы не можете отвечать на сообщения
Вы не можете редактировать свои сообщения
Вы не можете удалять свои сообщения
Вы не можете добавлять вложения

Перейти:  
Для Мосгорсуда, Роскомнадзора и рекламодателей: mosgorsud-torrent[собачка]yandex.ru
 Вход
ppkBB3cker v.2 © 2008-2014 @ PPK
[ Time : 0.064s | 14 Queries | GZIP : On ]

Торрент трекер RUTOR.IN, Не можете зайти на rutor.org? Какой новый адрес рутор? Какое зеркало рутор? Не работает rutor.org и зеркала? Тогда наш торрент специально для вас. Rutor.in неофициальное зеркало rutor. В случае если у Вас заблокирован rutor или вдруг Вы не можете на него зайти, то Вы без труда сможете скачать бесплатно и без рекламы последние новинки кино, игр, сериалов и прочего у нас, на Rutor.in. Не нужно использовать прокси, чтобы зайти на рутор, достаточно воспользоваться нашим ресурсом. Все новые фильмы, игры, сериалы, книги и музыка за 2013 и 2014 годы через торрент бесплатно. Скачивайте фильмы в хорошем качестве, игры для пк, xbox, playstation без регистрации. У нас вы найдете новые Зарубежные сериалы и Русские сериалы 2013, 2014, 2015 годов. Оставайтесь с нами, качайте любимые фильмы, игры, сериалы, книги и музыку.