img image001 image001 image001 image001 image001 image001 image001 image001 image001 image001 image001 image001 image001 image001 image001

Planets Sun Sun Sun
Статистика раздачи
Автор: Снежана | Размер: 2.42 ГБ | Добавлен: 27 июл 2013
Раздают: 41    Качают: 4
Скачать торрент
Скачать торрент
Описание торрента

СообщениеДобавлено: 27 июл 2013 

#77

Название: Лига Справедливости: Кризис двух Миров
Оригинальное название: Justice League: Crisis on Two Earths
Год выхода: 2010
Страна: США
Жанр: мультфильм, фантастика, боевик
Режиссер: Сэм Лью, Лоурен Монтгомери (Sam Liu, Lauren Montgomery)
В ролях: Марк Хэрмон, Джеймс Вудс, Крис Нот, Уильям Болдуин, Джина Торрес, Роберт Инглунд, Кевин Майкл Ричардсон, Брюс Дэвисон, Джошуа Китон, Чарльз Адлер

О фильме: Новый полнометражный мультфильм ДиСи. В нём пойдёт речь о противостоянии Лиги Справедливости с Преступным Синдикатом-параллельной версии Лиги Справедливости, которые захватили власть на своей Земле. Противостояние добра и зла приводит обе Земли на край гибели. Рискованный план спасения, похоже, единственный шанс выжить.

Информация о файле:
Продолжительность: 01:15:21
Язык (перевод):
1) русский многоголосый закадровый [SkyFilmTV]
2) оригинальная английская дорожка
Субтитры: нет

Качество: BDRip
Формат: MKV
Видео кодек: V_MPEG4/ISO/AVC
Аудио кодек: AC3
Видео: AVC / 1280x720 px / 3 425 Kbps / 23.976 fps
Аудио#1: AC3 / 48.0 KHz / 6ch / 448 Kbps (Русский | SkyeFilmTV)
Аудио#2: AC3 / 48.0 KHz / 6ch / 640 Kbps (Английский)

Семпл
General
Format : Matroska
File size : 2.42 GiB
Duration : 1h 15mn
Overall bit rate : 4 605 Kbps
Encoded date : UTC 2010-03-13 14:31:58
Writing application : mkvmerge v2.4.1 ('Use Me') built on Dec 11 2008 15:41:36
Writing library : libebml v0.7.7 + libmatroska v0.8.1
Video #1
ID : 1
Format : AVC
Format/Info : Advanced Video Codec
Format profile : High@L4.1
Format settings, CABAC : Yes
Format settings, ReFrames : 5 frames
Muxing mode : Container profile=Unknown@4.1
Codec ID : V_MPEG4/ISO/AVC
Duration : 1h 15mn
Bit rate : 3 425 Kbps
Nominal bit rate : 3 512 Kbps
Width : 1 280 pixels
Height : 720 pixels
Display aspect ratio : 16:9
Frame rate : 23.976 fps
Resolution : 24 bits
Colorimetry : 4:2:0
Scan type : Progressive
Bits/(Pixel*Frame) : 0.155
Stream size : 1.80 GiB (74%)
Writing library : x264 core 88 r1471 1144615
Encoding settings : cabac=1 / ref=5 / deblock=1:0:0 / analyse=0x3:0x133 / me=umh / subme=8 / psy=1 / psy_rd=1.00:0.00 / mixed_ref=1 / me_range=16 / chroma_me=1 / trellis=1 / 8x8dct=1 / cqm=0 / deadzone=21,11 / fast_pskip=0 / chroma_qp_offset=-2 / threads=12 / sliced_threads=0 / nr=0 / decimate=1 / mbaff=0 / constrained_intra=0 / bframes=3 / b_pyramid=2 / b_adapt=1 / b_bias=0 / direct=1 / wpredb=1 / wpredp=2 / keyint=240 / keyint_min=24 / scenecut=40 / intra_refresh=0 / rc_lookahead=40 / rc=2pass / mbtree=1 / bitrate=3512 / ratetol=1.0 / qcomp=0.60 / qpmin=10 / qpmax=51 / qpstep=4 / cplxblur=20.0 / qblur=0.5 / ip_ratio=1.40 / aq=1:1.00
Language : English
Audio #2
ID : 2
Format : AC-3
Format/Info : Audio Coding 3
Codec ID : A_AC3
Duration : 1h 15mn
Bit rate mode : Constant
Bit rate : 448 Kbps
Channel(s) : 6 channels
Channel positions : Front: L C R, Surround: L R, LFE
Sampling rate : 48.0 KHz
Stream size : 241 MiB (10%)
Title : SkyeFilmTV
Language : Russian
Audio #3
ID : 3
Format : AC-3
Format/Info : Audio Coding 3
Codec ID : A_AC3
Duration : 1h 15mn
Bit rate mode : Constant
Bit rate : 640 Kbps
Channel(s) : 6 channels
Channel positions : Front: L C R, Surround: L R, LFE
Sampling rate : 48.0 KHz
Stream size : 345 MiB (14%)
Title : Eng
Language : English





   Похожие торренты   Торрент   Размер 
В этой теме нет новых непрочитанных сообщений. Лига Справедливости: Кризис двух Миров / Justice League: Crisis on Two Earths (2010) BDRip 1080p

15 | 2

4.61 ГБ

В этой теме нет новых непрочитанных сообщений. Лига Справедливости: Кризис двух Миров / Justice League: Crisis on Two Earths (2010) HDRip

144 | 18

1.72 ГБ

В этой теме нет новых непрочитанных сообщений. Лего супергерои DC: Лига справедливости против Лиги Бизарро / Lego DC Comics Super Heroes: Justice League vs. Bizarro League (2015) BDRip-AVC | L

642 | 59

1009.03 МБ

В этой теме нет новых непрочитанных сообщений. Лига Справедливости: Трон Атлантиды / Justice League: Throne of Atlantis (2015) BDRip 720p от MediaClub | L

284 | 18

1.96 ГБ

В этой теме нет новых непрочитанных сообщений. Лига Справедливости: Трон Атлантиды / Justice League: Throne of Atlantis (2015) BDRip 720p от MediaClub | L

216 | 2

1.87 ГБ

В этой теме нет новых непрочитанных сообщений. Лига Справедливости против Юных Титанов / Justice League vs. Teen Titans (2016) BDRip 720p | LE-Production

145 | 11

3.12 ГБ

В этой теме нет новых непрочитанных сообщений. Лига Справедливости против Юных Титанов / Justice League vs. Teen Titans (2016) BDRip 720p от HDLine | P

653 | 43

2.43 ГБ




Вы не можете начинать темы
Вы не можете отвечать на сообщения
Вы не можете редактировать свои сообщения
Вы не можете удалять свои сообщения
Вы не можете добавлять вложения

Перейти:  
Для Мосгорсуда, Роскомнадзора и рекламодателей: mosgorsud-torrent[собачка]yandex.ru
 Вход
ppkBB3cker v.2 © 2008-2014 @ PPK
[ Time : 0.031s | 15 Queries | GZIP : Off ]

Торрент трекер RUTOR.IN, Не можете зайти на rutor.org? Какой новый адрес рутор? Какое зеркало рутор? Не работает rutor.org и зеркала? Тогда наш торрент специально для вас. Rutor.in неофициальное зеркало rutor. В случае если у Вас заблокирован rutor или вдруг Вы не можете на него зайти, то Вы без труда сможете скачать бесплатно и без рекламы последние новинки кино, игр, сериалов и прочего у нас, на Rutor.in. Не нужно использовать прокси, чтобы зайти на рутор, достаточно воспользоваться нашим ресурсом. Все новые фильмы, игры, сериалы, книги и музыка за 2013 и 2014 годы через торрент бесплатно. Скачивайте фильмы в хорошем качестве, игры для пк, xbox, playstation без регистрации. У нас вы найдете новые Зарубежные сериалы и Русские сериалы 2013, 2014, 2015 годов. Оставайтесь с нами, качайте любимые фильмы, игры, сериалы, книги и музыку.