img image001 image001 image001 image001 image001 image001 image001 image001 image001 image001 image001 image001 image001 image001 image001

Planets Sun Sun Sun
Статистика раздачи
Автор: Снежана | Размер: 6.05 ГБ | Добавлен: 27 июл 2013
Раздают: 1    Качают: 2
Скачать торрент
Скачать торрент
Описание торрента

СообщениеДобавлено: 27 июл 2013 

#77

азвание: Фантазия
Оригинальное название: Fantasia
Год выхода: 1940
Страна: США
Жанр: мультфильм, фэнтези, семейный, музыка
Режиссер: Сэмюель Армстронг / Samuel Armstrong, Джеймс Элгар / James Algar

О фильме: Необычайный, поражающий воображение мультконцерт, небывалое ранее единение музыки и мультипликации. Дисней и знаменитый дирижер Леопольд Стоковски решили воспроизвести на экране фантазии, возникающие в сознании людей при прослушивании музыкальных шедевров. Картина состоит из 8 классических композиций, проиллюстрированных сюжетными инсценировками и ритмичными абстракциями, предвосхищающими чудеса компьютерной графики.

Информация о файле:
Качество: BDRip 720p
Продолжительность: 02:04:27
Язык (перевод):
1) русский одноголосый закадровый [Кубик в Кубе]
2) oригинальная английская дорожка
3) английские комментарии
4) английские комментарии
5) английские комментарии
Субтитры: pусские, английские
Формат: MKV

Видео: 960x720 at 23.976 fps, x264@L4.1, 2pass, ~3750 kbps avg
Аудио 1: 48 kHz, DTS, 3/2 (L,C,R,l,r) + LFE ch, ~1536.00 kbps avg
Аудио 2: 48 kHz, DTS, 3/2 (L,C,R,l,r) + LFE ch, ~1536.00 kbps avg
Аудио 3: 48 kHz, AAC, 2/0 (L,R) ch, ~ avg
Аудио 4: 48 kHz, AAC, 2/0 (L,R) ch, ~ avg
Аудио 5: 48 kHz, AAC, 2/0 (L,R) ch, ~ avg
Format settings, ReFrames : 9 frames
Muxing mode : Container profile=Unknown@4.1
Codec ID : V_MPEG4/ISO/AVC
Duration : 2h 4mn
Nominal bit rate : 3 750 Kbps
Width : 960 pixels
Height : 720 pixels
Display aspect ratio : 4:3
Frame rate : 23.976 fps
Color space : YUV
Chroma subsampling : 4:2:0
Bit depth : 8 bits
Scan type : Progressive
Bits/(Pixel*Frame) : 0.226
Title : Release for HDCLUB
Writing library : x264 core 107 r1745+311 2317302
Encoding settings : cabac=1 / ref=9 / deblock=1:-3:-3 / analyse=0x3:0x133 / me=umh / subme=10 / psy=1 / fade_compensate=0.00 / psy_rd=1.00:0.00 / mixed_ref=1 / me_range=32 / chroma_me=1 / trellis=2 / 8x8dct=1 / cqm=0 / deadzone=21,11 / fast_pskip=0 / chroma_qp_offset=-2 / threads=18 / sliced_threads=0 / nr=0 / decimate=0 / interlaced=0 / constrained_intra=0 / fgo=0 / bframes=7 / b_pyramid=2 / b_adapt=2 / b_bias=0 / direct=3 / weightb=1 / open_gop=0 / weightp=2 / keyint=250 / keyint_min=23 / scenecut=40 / intra_refresh=0 / rc=2pass / mbtree=0 / bitrate=3750 / ratetol=1.0 / qcomp=0.60 / qpmin=10 / qpmax=51 / qpstep=4 / cplxblur=20.0 / qblur=0.5 / ip_ratio=1.40 / pb_ratio=1.30 / aq=2:0.50
Language : English

Audio #1
ID : 2
Format : DTS
Format/Info : Digital Theater Systems
Codec ID : A_DTS
Duration : 2h 4mn
Bit rate mode : Constant
Bit rate : 1 510 Kbps
Channel(s) : 6 channels
Channel positions : Front: L C R, Side: L R, LFE
Sampling rate : 48.0 KHz
Bit depth : 24 bits
Stream size : 1.31 GiB (22%)
Title : DTS; 1536 Kbps @ 5.1 ch - (Проф. одноголосый) Студия "Кубик в кубе" (2010)
Language : Russian

Audio #2
ID : 3
Format : DTS
Format/Info : Digital Theater Systems
Codec ID : A_DTS
Duration : 2h 4mn
Bit rate mode : Constant
Bit rate : 1 510 Kbps
Channel(s) : 6 channels
Channel positions : Front: L C R, Side: L R, LFE
Sampling rate : 48.0 KHz
Bit depth : 24 bits
Stream size : 1.31 GiB (22%)
Title : DTS; 1536 Kbps @ 5.1 ch
Language : English

Audio #3
ID : 4
Format : AAC
Format/Info : Advanced Audio Codec
Format version : Version 4
Format profile : LC
Format settings, SBR : Yes
Format settings, PS : No
Codec ID : A_AAC
Duration : 2h 4mn
Channel(s) : 2 channels
Channel positions : Front: L R
Sampling rate : 48.0 KHz
Title : Commentary #1
Language : English

Audio #4
ID : 5
Format : AAC
Format/Info : Advanced Audio Codec
Format version : Version 4
Format profile : LC
Format settings, SBR : Yes
Format settings, PS : No
Codec ID : A_AAC
Duration : 2h 4mn
Channel(s) : 2 channels
Channel positions : Front: L R
Sampling rate : 48.0 KHz
Title : Commentary #2
Language : English

Audio #5
ID : 6
Format : AAC
Format/Info : Advanced Audio Codec
Format version : Version 4
Format profile : LC
Format settings, SBR : Yes
Format settings, PS : No
Codec ID : A_AAC
Duration : 2h 4mn
Channel(s) : 2 channels
Channel positions : Front: L R
Sampling rate : 48.0 KHz
Title : Commentary #3
Language : English

Text #1
ID : 7
Format : UTF-8
Codec ID : S_TEXT/UTF8
Codec ID/Info : UTF-8 Plain Text
Title : Авторские субтитры - Е. Воронин (voronine) http://perevodvoronine.ucoz.ru/
Language : Russian

Text #2
ID : 8
Format : UTF-8
Codec ID : S_TEXT/UTF8
Codec ID/Info : UTF-8 Plain Text
Language : English

Menu
00:00:00.000 : en:Opening/Narrator's Introduction
00:03:59.114 : en:"Toccata And Fugue In D Minor"- Johann Sebastian Bach
00:13:39.819 : en:Narrator's Introduction
00:14:20.860 : en:"The Nutcracker Suite"- Pyotr Ilyich Tchaikovsky
00:28:48.143 : en:Narrator's Introduction
00:29:49.997 : en:"The Sorcerer's Apprentice"- Paul Dukas
00:39:36.374 : en:Narrator's Introduction
00:42:42.560 : en:"The Rite Of Spring"- Igor Stravinsky
01:05:23.920 : en:Intermission
01:08:45.538 : en:Meet The Soundtrack
01:12:12.537 : en:Narrator's Introduction
01:13:52.845 : en:"The Pastoral Symphony"-Ludwig Van Beethoven
01:36:10.765 : en:Narrator's Introduction
01:37:01.816 : en:"Dance Of The Hours"- Amilcare Ponchielli
01:49:20.971 : en:Narrator's Introduction
01:50:27.621 : en:"Night On Bald Mountain"- Modeste Moussorgsky
01:58:25.098 : en:"Ave Maria"- Franz Schubert



Раздача



   Похожие торренты   Торрент   Размер 
В этой теме нет новых непрочитанных сообщений. Фантазия / Fantasia (1940) BDRip 720p | 60 fps

7 | 3

5.1 ГБ

В этой теме нет новых непрочитанных сообщений. Фантазия / Fantasia (1940) BDRip HEVC 720p | P1

7 | 1

2.43 ГБ

В этой теме нет новых непрочитанных сообщений. Фантазия / Fantasia (1940) BDRip от HQCLUB

9 | 6

2.18 ГБ

В этой теме нет новых непрочитанных сообщений. Фантазия / Fantasia (1940) BDRip 1080p | 60 fps

35 | 7

7.38 ГБ

В этой теме нет новых непрочитанных сообщений. Фантазия / Fantasia (1940) BDRip от HQ-ViDEO

8 | 2

2.18 ГБ

В этой теме нет новых непрочитанных сообщений. Фантазия / Fantasia (1940) BDRip 1080p

3 | 2

13.23 ГБ

В этой теме нет новых непрочитанных сообщений. Фантазия / Fantasia (1940) BDRip HEVC 1080p | P1

6 | 9

5.48 ГБ




Вы не можете начинать темы
Вы не можете отвечать на сообщения
Вы не можете редактировать свои сообщения
Вы не можете удалять свои сообщения
Вы не можете добавлять вложения

Перейти:  
Для Мосгорсуда, Роскомнадзора и рекламодателей: mosgorsud-torrent[собачка]yandex.ru
 Вход
ppkBB3cker v.2 © 2008-2014 @ PPK
[ Time : 0.048s | 16 Queries | GZIP : Off ]

cron