img image001 image001 image001 image001 image001 image001 image001 image001 image001 image001 image001 image001 image001 image001 image001

Planets Sun Sun Sun
Статистика раздачи
Автор: Снежана | Размер: 8.13 ГБ | Добавлен: 27 июл 2013
Раздают: 1    Качают: 2
Скачать торрент
Скачать торрент
Описание торрента

СообщениеДобавлено: 27 июл 2013 

#77

Название: Секрет Н.И.М.Х. (Секрет Крыс)
Оригинальное название: The Secret of NIMH
Год выхода: 1982
Страна: США
Жанр: мультфильм, фантастика, фэнтези, драма, семейный
Режиссер: Дон Блат / Don Bluth
В ролях: Дерек Джекоби (Nicodemus), Элизабет Хартман (Mrs. Brisby), Артур Мэлет (Mr. Ages), Дом ДеЛуис (Jeremy), Гермиона Бадделей (Auntie Shrew), Шэннен Доэрти (Teresa), Уил Уитон (Martin), Джоди Хикс (Cynthia), Йен Фрид (Timothy), Джон Кэррадайн (Great Owl), Питер Штраусс (Justin), Пол Шенар (Jenner)

О фильме: Сражаясь за спасение своего домика от разрушения фермером Фицджиббом, миссис Бризби прибегает к помощи своих друзей, среди которых красавица - ворона, мудрая сова и несколько невероятно сообразительных крыс.

Информация о файле:
Качество: BDRip 720p
Продолжительность: 01:22:45
Язык (перевод):
1) русский дублированный
2) русский многоголосый закадровый [НТВ+]
3) русский одноголосый закадровый [Гаврилов Андрей]
4) русский одноголосый закадровый [Живов Юрий]
5) русский одноголосый закадровый [Кузнецов Сергей)
6) оригинальная английская дорожка
7) английские комментарии
Субтитры: русские, английские, французские
Формат: MKV

Видео: 1280x692 (1.850); 11214 Kbps; 23,976 fps
Аудио №1: AC3; 192 Kbps; CBR; 2 ch
Аудио №2: AC3; 192 Kbps; CBR; 2 ch
Аудио №3: AC3; 256 Kbps; CBR; 2 ch
Аудио №4: AC3; 256 Kbps; CBR; 2 ch
Аудио №5: AC3; 192 Kbps; CBR; 2 ch
Аудио №6: DTS; 1509 Kbps; CBR; 2 ch; 24 bit
Аудио №7: AC3; 256 Kbps; CBR; 2 ch
General
Unique ID : 174176436647946476645067289014199833906 (0x83092957B75FFC2086B9C44F771ED532)
Complete name : The.Secret.of.NIMH.1982.720p.BluRay.5xRus.Eng-Skazhutin.mkv
Format : Matroska
Format version : Version 2
File size : 8.13 GiB
Duration : 1h 22mn
Overall bit rate : 14.1 Mbps
Movie name : The Secret of NIMH (1982) 720p BDRip by Skazhutin
Encoded date : UTC 2011-07-24 10:30:40
Writing application : mkvmerge v4.9.1 ('Ich will') built on Jul 11 2011 23:53:15
Writing library : libebml v1.2.1 + libmatroska v1.1.1
Attachment : Yes / Yes

Video
ID : 1
Format : AVC
Format/Info : Advanced Video Codec
Format profile : High@L4.1
Format settings, CABAC : Yes
Format settings, ReFrames : 8 frames
Codec ID : V_MPEG4/ISO/AVC
Duration : 1h 22mn
Bit rate : 11.2 Mbps
Width : 1 280 pixels
Height : 692 pixels
Display aspect ratio : 1.850
Frame rate : 23.976 fps
Color space : YUV
Chroma subsampling : 4:2:0
Bit depth : 8 bits
Scan type : Progressive
Bits/(Pixel*Frame) : 0.528
Stream size : 6.32 GiB (78%)
Writing library : x264 core 116 r2019 9cc407d
Encoding settings : cabac=1 / ref=8 / deblock=1:-3:-3 / analyse=0x3:0x113 / me=umh / subme=10 / psy=1 / psy_rd=0.90:0.00 / mixed_ref=1 / me_range=32 / chroma_me=1 / trellis=2 / 8x8dct=1 / cqm=0 / deadzone=21,11 / fast_pskip=0 / chroma_qp_offset=-4 / threads=6 / sliced_threads=0 / nr=0 / decimate=0 / interlaced=0 / bluray_compat=0 / constrained_intra=0 / bframes=13 / b_pyramid=2 / b_adapt=2 / b_bias=0 / direct=3 / weightb=1 / open_gop=0 / weightp=2 / keyint=250 / keyint_min=23 / scenecut=40 / intra_refresh=0 / rc_lookahead=40 / rc=2pass / mbtree=0 / bitrate=11220 / ratetol=1.0 / qcomp=0.67 / qpmin=0 / qpmax=69 / qpstep=4 / cplxblur=20.0 / qblur=0.5 / vbv_maxrate=50000 / vbv_bufsize=62500 / nal_hrd=none / ip_ratio=1.40 / pb_ratio=1.30 / aq=1:0.60
Language : English
Color primaries : BT.709-5, BT.1361, IEC 61966-2-4, SMPTE RP177
Transfer characteristics : BT.709-5, BT.1361
Matrix coefficients : BT.709-5, BT.1361, IEC 61966-2-4 709, SMPTE RP177

Audio #1
ID : 2
Format : AC-3
Format/Info : Audio Coding 3
Mode extension : CM (complete main)
Codec ID : A_AC3
Duration : 1h 22mn
Bit rate mode : Constant
Bit rate : 192 Kbps
Channel(s) : 2 channels
Channel positions : Front: L R
Sampling rate : 48.0 KHz
Bit depth : 16 bits
Compression mode : Lossy
Stream size : 114 MiB (1%)
Title : Dub
Language : Russian

Audio #2
ID : 3
Format : AC-3
Format/Info : Audio Coding 3
Mode extension : CM (complete main)
Codec ID : A_AC3
Duration : 1h 22mn
Bit rate mode : Constant
Bit rate : 192 Kbps
Channel(s) : 2 channels
Channel positions : Front: L R
Sampling rate : 48.0 KHz
Bit depth : 16 bits
Compression mode : Lossy
Stream size : 114 MiB (1%)
Title : MVO NTV+
Language : Russian

Audio #3
ID : 4
Format : AC-3
Format/Info : Audio Coding 3
Mode extension : CM (complete main)
Codec ID : A_AC3
Duration : 1h 22mn
Bit rate mode : Constant
Bit rate : 256 Kbps
Channel(s) : 2 channels
Channel positions : Front: L R
Sampling rate : 48.0 KHz
Bit depth : 16 bits
Compression mode : Lossy
Stream size : 152 MiB (2%)
Title : AVO Gavrilov
Language : Russian

Audio #4
ID : 5
Format : AC-3
Format/Info : Audio Coding 3
Mode extension : CM (complete main)
Codec ID : A_AC3
Duration : 1h 22mn
Bit rate mode : Constant
Bit rate : 256 Kbps
Channel(s) : 2 channels
Channel positions : Front: L R
Sampling rate : 48.0 KHz
Bit depth : 16 bits
Compression mode : Lossy
Stream size : 152 MiB (2%)
Title : AVO Jivov
Language : Russian

Audio #5
ID : 6
Format : AC-3
Format/Info : Audio Coding 3
Mode extension : CM (complete main)
Codec ID : A_AC3
Duration : 1h 22mn
Bit rate mode : Constant
Bit rate : 192 Kbps
Channel(s) : 2 channels
Channel positions : Front: L R
Sampling rate : 48.0 KHz
Bit depth : 16 bits
Compression mode : Lossy
Stream size : 114 MiB (1%)
Title : AVO Kuznecov
Language : Russian

Audio #6
ID : 7
Format : DTS
Format/Info : Digital Theater Systems
Codec ID : A_DTS
Duration : 1h 22mn
Bit rate mode : Constant
Bit rate : 1 510 Kbps
Channel(s) : 2 channels
Channel positions : Front: L R
Sampling rate : 48.0 KHz
Bit depth : 24 bits
Compression mode : Lossy
Stream size : 894 MiB (11%)
Title : ENG
Language : English

Audio #7
ID : 8
Format : AC-3
Format/Info : Audio Coding 3
Mode extension : CM (complete main)
Codec ID : A_AC3
Duration : 1h 22mn
Bit rate mode : Constant
Bit rate : 256 Kbps
Channel(s) : 2 channels
Channel positions : Front: L R
Sampling rate : 48.0 KHz
Bit depth : 16 bits
Compression mode : Lossy
Stream size : 152 MiB (2%)
Title : Commentary
Language : English

Text #1
ID : 9
Format : UTF-8
Codec ID : S_TEXT/UTF8
Codec ID/Info : UTF-8 Plain Text
Language : Russian

Text #2
ID : 10
Format : UTF-8
Codec ID : S_TEXT/UTF8
Codec ID/Info : UTF-8 Plain Text
Language : English

Text #3
ID : 11
Format : UTF-8
Codec ID : S_TEXT/UTF8
Codec ID/Info : UTF-8 Plain Text
Language : French

Menu
00:00:00.000 : en:Prologue / Main Titles
00:03:52.231 : en:Medicine Packet
00:07:03.047 : en:Call of the Wild
00:09:56.345 : en:Allergic to Cats
00:11:53.003 : en:Jeremy's Potential
00:14:42.298 : en:Auntie Shrew
00:17:39.892 : en:Flying Dreams
00:20:41.865 : en:Moving Day
00:24:19.541 : en:Seeking Wisdom
00:26:26.084 : en:The Great Owl
00:31:57.332 : en:Helpful Jeremy
00:34:36.240 : en:Brutus
00:38:56.959 : en:The Great Council
00:44:51.980 : en:All Tied Up
00:47:43.402 : en:Nicodemus
00:50:56.595 : en:The Secret of NIMH
00:53:59.527 : en:The Glowing Stone
00:56:34.682 : en:Drugging Dragon
01:03:14.457 : en:Bad News
01:07:37.094 : en:The Warning
01:10:34.229 : en:The House Sinks
01:12:46.403 : en:The Medallion's Power
01:15:02.915 : en:Sweet New Home
01:17:51.667 : en:End Titles




   Похожие торренты   Торрент   Размер 
В этой теме нет новых непрочитанных сообщений. Секрет Н.И.М.Х. / Секрет Крыс / The Secret of NIMH (1982) BDRip 1080p

3 | 4

5.9 ГБ

В этой теме нет новых непрочитанных сообщений. Секрет Н.И.М.Х. / Секрет Крыс / The Secret of NIMH (1982) BDRip-AVC от AVCurtain

50 | 9

2.69 ГБ

В этой теме нет новых непрочитанных сообщений. Секрет Н.И.М.Х. / Секрет Крыс / The Secret of NIMH (1982) BDRip от HQCLUB

57 | 11

1.46 ГБ

В этой теме нет новых непрочитанных сообщений. Секрет Н.И.М.Х. / Секрет Крыс / The Secret of NIMH (1982) BDRemux 1080p

0 | 2

17.55 ГБ

В этой теме нет новых непрочитанных сообщений. Секрет Н.И.М.Х. 1 - 2 / The Secret of NIMH; The Secret of NIMH 2: Timmy to the Rescue (1982-1998) 2xDVD5 от New-Team | D, P | Лицензия

96 | 34

7.35 ГБ

В этой теме нет новых непрочитанных сообщений. Секрет Н.И.М.Х. / The Secret of NIMH (1982) BDRip 1080p | D, P2, A

51 | 19

13.51 ГБ

В этой теме нет новых непрочитанных сообщений. Секрет Н.И.М.Х. / The Secret of NIMH (1982) BDRip-AVC | iPad

3 | 3

1.41 ГБ




Вы не можете начинать темы
Вы не можете отвечать на сообщения
Вы не можете редактировать свои сообщения
Вы не можете удалять свои сообщения
Вы не можете добавлять вложения

Перейти:  
Для Мосгорсуда, Роскомнадзора и рекламодателей: mosgorsud-torrent[собачка]yandex.ru
 Вход
ppkBB3cker v.2 © 2008-2014 @ PPK
[ Time : 2.690s | 14 Queries | GZIP : On ]

Торрент трекер RUTOR.IN, Не можете зайти на rutor.org? Какой новый адрес рутор? Какое зеркало рутор? Не работает rutor.org и зеркала? Тогда наш торрент специально для вас. Rutor.in неофициальное зеркало rutor. В случае если у Вас заблокирован rutor или вдруг Вы не можете на него зайти, то Вы без труда сможете скачать бесплатно и без рекламы последние новинки кино, игр, сериалов и прочего у нас, на Rutor.in. Не нужно использовать прокси, чтобы зайти на рутор, достаточно воспользоваться нашим ресурсом. Все новые фильмы, игры, сериалы, книги и музыка за 2013 и 2014 годы через торрент бесплатно. Скачивайте фильмы в хорошем качестве, игры для пк, xbox, playstation без регистрации. У нас вы найдете новые Зарубежные сериалы и Русские сериалы 2013, 2014, 2015 годов. Оставайтесь с нами, качайте любимые фильмы, игры, сериалы, книги и музыку.