img image001 image001 image001 image001 image001 image001 image001 image001 image001 image001 image001 image001 image001 image001 image001

Planets Sun Sun Sun
Статистика раздачи
Автор: Снежана | Размер: 15.75 ГБ | Добавлен: 27 июл 2013
Раздают: 2    Качают: 3
Скачать торрент
Скачать торрент
Описание торрента

СообщениеДобавлено: 27 июл 2013 

#77

Название: Атлантида: Затерянный мир
Оригинальное название: Atlantis: The Lost Empire
Год выхода: 2001
Страна: США
Жанр: мультфильм, фантастика, приключения, семейный
Режиссер: Гари Труздейл / Кирк Уайз
Роли озвучивали: Майкл Дж. Фокс, Кори Бертон, Клаудия Кристиан, Джеймс Гарнер, Джон Махони, Фил Моррис, Леонард Нимой, Дон Новелло, Жаклин Обрадорс, Флоренс Стэнли
Роли дублировали: Андрей Матвеев, Игорь Шибанов, Ирина Коновалова, Николай Буров, Марк Макаренков

О фильме: Атлантида… Мечтою найти легендарный затонувший в пучинах океана остров грезили многие смельчаки. Но только юному картографу Майло Тэтчу повезло: в 1914 году в его руки попал таинственный дневник, указывающий путь к Затерянной империи. И вот уже самая могучая подводная лодка в мире под командованием неустрашимого капитана Рурка выходит в открытый океан.
Майло и его спутников ждет множество незабываемых приключений, превосходящих все похождения капитана Немо: схватка с морским чудовищем, древние загадки, буйство стихий, мистические силы и даже встреча с цивилизацией атлантов! И это лишь малая толика того, что ждет героев на их пути к тайнам великой Атлантиды.

Информация о файле:
Качество: HDTV 1080i
Продолжительность: 01:35:40
Язык (перевод):
1) русский дублированный [R5]
2) русский многоголосый закадровый [С.Р.И.]
3) русский одноголосый закадровый [Визгунов]
4) оригинальная английская дорожка
5) английские комментарии режиссеров и продюсера
6) английские комментарии режиссеров и продюсера
Субтитры: pусские (4 варианта), английские
Формат: MKV

Видео: H.264 1920x1080, 29.970 fps, ~19.1mbps
Аудио 1: Dolby AC3 5.1, 384kbps, 48kHz
Аудио 2: DTS 5.1, 755kbps, 48kHz
Аудио 3: DTS 5.1, 755kbps, 48kHz
Аудио 4: DTS 5.1, 755kbps, 48kHz
Аудио 5: Dolby AC3 2.0, 192kbps, 48kHz
Аудио 6: Dolby AC3 2.0, 192kbps, 48kHz
General
Complete name : E:HDAnimeAtlantis.The.Lost.Empire.1080.WOWOW.Mpeg2.DTS.HDTracker.mkv
Format : Matroska
File size : 15.8 GiB
Duration : 1h 35mn
Overall bit rate : 23.6 Mbps
Movie name : Atlantis: The Lost Empire (2001)
Encoded date : UTC 2010-02-16 06:37:11
Writing application : mkvmerge v3.1.0 ('Happy up here') built on Jan 19 2010 12:09:24
Writing library : libebml v0.7.9 + libmatroska v0.8.1

Video
ID : 1
Format : MPEG Video
Format version : Version 2
Format profile : Main@High
Format settings, BVOP : Yes
Format settings, Matrix : Default
Codec ID : V_MPEG2
Codec ID/Info : MPEG 1 or 2 Video
Duration : 1h 35mn
Bit rate mode : Variable
Bit rate : 20.1 Mbps
Nominal bit rate : 24.0 Mbps
Width : 1 920 pixels
Height : 1 080 pixels
Display aspect ratio : 16:9
Frame rate : 29.970 fps
Resolution : 8 bits
Colorimetry : 4:2:0
Scan type : Progressive
Bits/(Pixel*Frame) : 0.323
Stream size : 13.4 GiB (85%)
Language : English

Audio #1
ID : 2
Format : AC-3
Format/Info : Audio Coding 3
Codec ID : A_AC3
Duration : 1h 35mn
Bit rate mode : Constant
Bit rate : 384 Kbps
Channel(s) : 6 channels
Channel positions : Front: L C R, Surround: L R, LFE
Sampling rate : 48.0 KHz
Video delay : -83ms
Stream size : 263 MiB (2%)
Title : Dublyazh
Language : Russian

Audio #2
ID : 3
Format : DTS
Format/Info : Digital Theater Systems
Codec ID : A_DTS
Duration : 1h 35mn
Bit rate mode : Constant
Bit rate : 755 Kbps
Channel(s) : 6 channels
Channel positions : Front: L C R, Surround: L R, LFE
Sampling rate : 48.0 KHz
Resolution : 24 bits
Video delay : -74ms
Stream size : 516 MiB (3%)
Title : S.R.I
Language : Russian

Audio #3
ID : 4
Format : DTS
Format/Info : Digital Theater Systems
Codec ID : A_DTS
Duration : 1h 35mn
Bit rate mode : Constant
Bit rate : 755 Kbps
Channel(s) : 6 channels
Channel positions : Front: L C R, Surround: L R, LFE
Sampling rate : 48.0 KHz
Resolution : 24 bits
Video delay : -74ms
Stream size : 516 MiB (3%)
Title : Vizgunov
Language : Russian

Audio #4
ID : 5
Format : DTS
Format/Info : Digital Theater Systems
Codec ID : A_DTS
Duration : 1h 35mn
Bit rate mode : Constant
Bit rate : 755 Kbps
Channel(s) : 6 channels
Channel positions : Front: L C R, Surround: L R, LFE
Sampling rate : 48.0 KHz
Resolution : 24 bits
Video delay : -74ms
Stream size : 516 MiB (3%)
Title : DVD R1 SE
Language : English

Audio #5
ID : 6
Format : AC-3
Format/Info : Audio Coding 3
Codec ID : A_AC3
Duration : 1h 35mn
Bit rate mode : Constant
Bit rate : 192 Kbps
Channel(s) : 2 channels
Channel positions : L R
Sampling rate : 48.0 KHz
Video delay : -83ms
Stream size : 131 MiB (1%)
Title : Commentary 1
Language : English

Audio #6
ID : 7
Format : AC-3
Format/Info : Audio Coding 3
Codec ID : A_AC3
Duration : 1h 35mn
Bit rate mode : Constant
Bit rate : 192 Kbps
Channel(s) : 2 channels
Channel positions : L R
Sampling rate : 48.0 KHz
Video delay : -83ms
Stream size : 131 MiB (1%)
Title : Commentary 2
Language : English

Text #1
ID : 8
Format : ASS
Codec ID : S_TEXT/ASS
Codec ID/Info : Advanced Sub Station Alpha
Title : Nadpisi
Language : Russian

Text #2
ID : 9
Format : ASS
Codec ID : S_TEXT/ASS
Codec ID/Info : Advanced Sub Station Alpha
Title : Polnye
Language : Russian

Text #3
ID : 10
Format : ASS
Codec ID : S_TEXT/ASS
Codec ID/Info : Advanced Sub Station Alpha
Title : Polnye HI
Language : Russian

Text #4
ID : 11
Format : UTF-8
Codec ID : S_TEXT/UTF8
Codec ID/Info : UTF-8 Plain Text
Title : Commentary 1
Language : Russian

Text #5
ID : 12
Format : UTF-8
Codec ID : S_TEXT/UTF8
Codec ID/Info : UTF-8 Plain Text
Title : HI
Language : English

Menu
00:00:00.000 : en:Prologue
00:02:31.083 : en:Milo's Presentation
00:07:55.070 : en:А Most Intriguing Proposition
00:13:42.083 : en:The Expedition Begins
00:18:47.016 : en:The Lair Of The Leviathan
00:26:25.090 : en:Convoy
00:31:32.000 : en:New Friends
00:36:15.083 : en:Fire
00:40:51.099 : en:Welcome To The City Of Atlantis
00:46:54.049 : en:Questions
00:53:51.063 : en:The Missing Page
00:59:39.050 : en:The Heart Of Atlantis
01:06:20.049 : en:A Change Of Heart
01:08:46.016 : en:"Save Atlantis, Save My Daughter"
01:13:08.070 : en:The Right Thing To Do
01:19:40.001 : en:Saving Atlantis
01:25:09.030 : en:Proof
01:28:01.050 : en:A Place Among Kings
01:29:25.060 : en:End Credits




   Похожие торренты   Торрент   Размер 
В этой теме нет новых непрочитанных сообщений. Атлантида: Затерянный мир / Atlantis: The Lost Empire (2001) HDTVRip-AVC

213 | 6

1.33 ГБ

В этой теме нет новых непрочитанных сообщений. Атлантида: Затерянный мир / Atlantis: The Lost Empire (2001) DVDRip

46 | 9

678.29 МБ

В этой теме нет новых непрочитанных сообщений. Атлантида: Затерянный мир / Atlantis: The Lost Empire (2001) BDRemux от FREEISLAND

4 | 2

19.49 ГБ

В этой теме нет новых непрочитанных сообщений. Атлантида: Затерянный мир / Atlantis: The Lost Empire (2001) BDRip от KinoRay

130 | 14

2.14 ГБ

В этой теме нет новых непрочитанных сообщений. Атлантида: Затерянный мир / Atlantis: The Lost Empire (2001) BDRip-AVC | iPad | D

223 | 22

1.7 ГБ

В этой теме нет новых непрочитанных сообщений. Атлантида: Затерянный мир / Atlantis: The Lost Empire (2001) HDTVRip 720p

79 | 6

4.37 ГБ

В этой теме нет новых непрочитанных сообщений. Атлантида: Затерянный мир / Atlantis: The Lost Empire (2001) BDRip 720p от leonardo 59

123 | 8

2.16 ГБ




Вы не можете начинать темы
Вы не можете отвечать на сообщения
Вы не можете редактировать свои сообщения
Вы не можете удалять свои сообщения
Вы не можете добавлять вложения

Перейти:  
Для Мосгорсуда, Роскомнадзора и рекламодателей: mosgorsud-torrent[собачка]yandex.ru
 Вход
ppkBB3cker v.2 © 2008-2014 @ PPK
[ Time : 0.030s | 16 Queries | GZIP : Off ]

Торрент трекер RUTOR.IN, Не можете зайти на rutor.org? Какой новый адрес рутор? Какое зеркало рутор? Не работает rutor.org и зеркала? Тогда наш торрент специально для вас. Rutor.in неофициальное зеркало rutor. В случае если у Вас заблокирован rutor или вдруг Вы не можете на него зайти, то Вы без труда сможете скачать бесплатно и без рекламы последние новинки кино, игр, сериалов и прочего у нас, на Rutor.in. Не нужно использовать прокси, чтобы зайти на рутор, достаточно воспользоваться нашим ресурсом. Все новые фильмы, игры, сериалы, книги и музыка за 2013 и 2014 годы через торрент бесплатно. Скачивайте фильмы в хорошем качестве, игры для пк, xbox, playstation без регистрации. У нас вы найдете новые Зарубежные сериалы и Русские сериалы 2013, 2014, 2015 годов. Оставайтесь с нами, качайте любимые фильмы, игры, сериалы, книги и музыку.