img image001 image001 image001 image001 image001 image001 image001 image001 image001 image001 image001 image001 image001 image001 image001

Planets Sun Sun Sun
Статистика раздачи
Автор: Снежана | Размер: 4.74 ГБ | Добавлен: 27 июл 2013
Раздают: 10    Качают: 4
Скачать торрент
Скачать торрент
Описание торрента

СообщениеДобавлено: 27 июл 2013 

#77

Название: Южный Парк: Большой, длинный, необрезанный
Оригинальное название: South Park: Bigger Longer & Uncut
Год выхода: 1999
Страна: США
Жанр: мультфильм, мюзикл, комедия
Режиссер: Трей Паркер / Trey Parker
В ролях: Трей Паркер, Мэтт Стоун, Мэри Кэй Бергман, Айзек Хейз, Джесси Хауэлл, Энтони Кросс-Томас, Франческа Клиффорд, Брюс Хауэлл, Дэб Шихэн, Дженнифер Хауэлл и другие

О фильме: В кинопрокате города Южного Парка появляется художественный фильм для взрослых «Пламенные жопы». Стэн, Кайл, Кенни и Картман хитростью проникают на просмотр и знакомятся с чудовищными ругательствами, которые изрыгают знатные канадские юмористы сортирного толка — Терренс и Филлип. По окончании просмотра дети несут культуру в массы — кроют всё и вся на свете. Правительство США, возмущённое аморальностью канадской кино продукции, берёт Терренса и Филлипа под арест и намерено казнить их на электрическом стуле. А в это время пребывающий в глубинах Ада Саддам Хуссейн вместе со своим дружком Сатаной готовятся выйти на поверхность и захватить Землю навсегда…

Информация о файле:
Качество: BDRip 1080p
Продолжительность: 01:21:15
Язык (перевод):
1) русский одноголосый закадровый (Goblin)
2) русский многоголосый закадровый (HTB+)
3) оригинальная английская дорожка
Субтитры: русские (Гоблин), английские
Формат: MKV

Видео: H.264, 1920x1080 px, 7 063 Kbps, 23.976 fps
Аудио 1: AC3, 6ch, 448 Kbps
Аудио 2: AC3, 2ch, 192 Kbps
Аудио 3: AC3, 6ch, 640 Kbps
Код:
General
Format : Matroska
File size : 4.74 GiB
Duration : 1h 21mn
Overall bit rate : 8 347 Kbps
Encoded date : UTC 2010-02-24 18:52:36
Writing application : mkvmerge v2.4.0 ('Fumbling Towards Ecstasy') built on Oct 11 2008 20:13:15
Writing library : libebml v0.7.7 + libmatroska v0.8.1
Cover : Yes
Video #1
ID : 1
Format : AVC
Format/Info : Advanced Video Codec
Format profile : High@L4.1
Format settings, CABAC : Yes
Format settings, ReFrames : 4 frames
Muxing mode : Container profile=Unknown@4.1
Codec ID : V_MPEG4/ISO/AVC
Duration : 1h 21mn
Bit rate : 6 901 Kbps
Nominal bit rate : 7 063 Kbps
Width : 1 920 pixels
Height : 1 080 pixels
Display aspect ratio : 16:9
Frame rate : 23.976 fps
Resolution : 8 bits
Colorimetry : 4:2:0
Scan type : Progressive
Bits/(Pixel*Frame) : 0.139
Stream size : 3.91 GiB (83%)
Writing library : x264 core 76 r1271 496d79d
Encoding settings : cabac=1 / ref=4 / deblock=1:0:0 / analyse=0x3:0x133 / me=umh / subme=7 / psy=1 / psy_rd=1.0:0.0 / mixed_ref=1 / me_range=16 / chroma_me=1 / trellis=1 / 8x8dct=1 / cqm=0 / deadzone=21,11 / chroma_qp_offset=-2 / threads=6 / nr=0 / decimate=1 / mbaff=0 / bframes=3 / b_pyramid=0 / b_adapt=1 / b_bias=0 / direct=1 / wpredb=1 / keyint=250 / keyint_min=25 / scenecut=40 / rc_lookahead=40 / rc=2pass / mbtree=1 / bitrate=7063 / ratetol=1.0 / qcomp=0.60 / qpmin=10 / qpmax=51 / qpstep=4 / cplxblur=20.0 / qblur=0.5 / ip_ratio=1.40 / aq=1:1.00
Language : English
Audio #2
ID : 2
Format : AC-3
Format/Info : Audio Coding 3
Codec ID : A_AC3
Duration : 1h 21mn
Bit rate mode : Constant
Bit rate : 448 Kbps
Channel(s) : 6 channels
Channel positions : Front: L C R, Surround: L R, LFE
Sampling rate : 48.0 KHz
Stream size : 260 MiB (5%)
Title : Goblin
Language : Russian
Audio #3
ID : 3
Format : AC-3
Format/Info : Audio Coding 3
Codec ID : A_AC3
Duration : 1h 21mn
Bit rate mode : Constant
Bit rate : 192 Kbps
Channel(s) : 2 channels
Channel positions : L R
Sampling rate : 48.0 KHz
Stream size : 112 MiB (2%)
Title : HTB+
Language : Russian
Audio #4
ID : 4
Format : AC-3
Format/Info : Audio Coding 3
Codec ID : A_AC3
Duration : 1h 21mn
Bit rate mode : Constant
Bit rate : 640 Kbps
Channel(s) : 6 channels
Channel positions : Front: L C R, Surround: L R, LFE
Sampling rate : 48.0 KHz
Stream size : 372 MiB (8%)
Title : English
Language : English
Text #5
ID : 5
Format : UTF-8
Codec ID : S_TEXT/UTF8
Codec ID/Info : UTF-8 Plain Text
Title : Goblin
Language : Russian
Text #6
ID : 6
Format : UTF-8
Codec ID : S_TEXT/UTF8
Codec ID/Info : UTF-8 Plain Text
Language : English




   Похожие торренты   Торрент   Размер 
В этой теме нет новых непрочитанных сообщений. Южный Парк: Большой, длинный, необрезанный / South Park: Bigger Longer & Uncut (1999) BDRip 1080p | P, A

48 | 8

7.75 ГБ

В этой теме нет новых непрочитанных сообщений. Южный Парк: Большой, длинный, необрезанный / South Park: Bigger Longer & Uncut (1999) BDRip

16 | 2

1.82 ГБ

В этой теме нет новых непрочитанных сообщений. Южный Парк: Большой, длинный, необрезанный / South Park: Bigger Longer & Uncut (1999) BDRip от HQCLUB

55 | 8

1.45 ГБ

В этой теме нет новых непрочитанных сообщений. Южный Парк: Большой, Длинный, Необрезанный / South Park: Bigger Longer & Uncut (1999) BDRip от HQ-ViDEO

4 | 4

1.71 ГБ

В этой теме нет новых непрочитанных сообщений. Южный Парк: Большой, длинный, необрезанный / South Park: Bigger Longer & Uncut (1999) BDRip от HQ-ViDEO | P, A

271 | 19

1.46 ГБ

В этой теме нет новых непрочитанных сообщений. Южный Парк: Большой, Длинный, Необрезанный / South Park: Bigger Longer & Uncut (1999) BDRip от HELLYWOOD

32 | 7

2.03 ГБ

В этой теме нет новых непрочитанных сообщений. Южный Парк: Большой, Длинный, Необрезанный / South Park: Bigger Longer & Uncut (1999) DVDRip

7 | 3

700.87 МБ




Вы не можете начинать темы
Вы не можете отвечать на сообщения
Вы не можете редактировать свои сообщения
Вы не можете удалять свои сообщения
Вы не можете добавлять вложения

Перейти:  
Для Мосгорсуда, Роскомнадзора и рекламодателей: mosgorsud-torrent[собачка]yandex.ru
 Вход
ppkBB3cker v.2 © 2008-2014 @ PPK
[ Time : 0.050s | 14 Queries | GZIP : Off ]

Торрент трекер RUTOR.IN, Не можете зайти на rutor.org? Какой новый адрес рутор? Какое зеркало рутор? Не работает rutor.org и зеркала? Тогда наш торрент специально для вас. Rutor.in неофициальное зеркало rutor. В случае если у Вас заблокирован rutor или вдруг Вы не можете на него зайти, то Вы без труда сможете скачать бесплатно и без рекламы последние новинки кино, игр, сериалов и прочего у нас, на Rutor.in. Не нужно использовать прокси, чтобы зайти на рутор, достаточно воспользоваться нашим ресурсом. Все новые фильмы, игры, сериалы, книги и музыка за 2013 и 2014 годы через торрент бесплатно. Скачивайте фильмы в хорошем качестве, игры для пк, xbox, playstation без регистрации. У нас вы найдете новые Зарубежные сериалы и Русские сериалы 2013, 2014, 2015 годов. Оставайтесь с нами, качайте любимые фильмы, игры, сериалы, книги и музыку.