img image001 image001 image001 image001 image001 image001 image001 image001 image001 image001 image001 image001 image001 image001 image001

Planets Sun Sun Sun
Статистика раздачи
Автор: Снежана | Размер: 4.37 ГБ | Добавлен: 27 июл 2013
Раздают: 390    Качают: 16
Скачать торрент
Скачать торрент
Описание торрента

СообщениеДобавлено: 27 июл 2013 

#77

Информация о фильме
Название: Тачки 2
Оригинальное название: Cars 2
Год выхода: 2011
Жанр: мультфильм, комедия, приключения, семейный
Режиссер: Джон Лассетер, Брэд Льюис
В ролях: Оуэн Уилсон, Ларри Кейбл Гай, Майкл Кейн, Эмили Мортимер, Эдди Иззард, Джон Туртурро, Брент Мусбургер, Джо Мантенья, Томас Кречманн, Питер Джекобсон

О фильме: Молния МакКуин и его друг Мэтр отправляются в международное путешествие — когда МакКуин получает шанс участвовать в соревнованиях для самых быстрых машин в мире, Мировом Гран-При. Этапы этих престижных гонок заведут друзей в Токио, на набережные Парижа, на побережье Италии, и на улицы туманного Лондона.


Выпущено: Walt Disney Pictures
Продолжительность: 01:47:01
Перевод: Дублированный [локализован в т.ч. и видеоряд]

Файл
Кодек: x264
Качество: BDRip (источник: Blu-ray Disc)
Видео: 1920x800 (2,40:1), 23.976 fps, 5208 kbps
Звук: 48 kHz, AC-3, 6 ch, 640 kbps
Субтитры: Русские (форс,полные), Английские
Скачать: сэмпл

Скриншоты

Общее
Уникальный идентификатор : 190999538797598559869658591636932736542 (0x8FB12C5129A75A0AB7EAAD67EF3F361E)
Полное имя : Cars.2.BDRip.1080p.Rus.mkv
Формат : Matroska
Версия формата : Version 2
Размер файла : 4,37 Гбайт
Продолжительность : 1 ч. 47 м.
Общий поток : 5849 Кбит/сек
Дата кодирования : UTC 2011-11-03 22:10:24
Программа кодирования : mkvmerge v4.0.0 ('The Stars were mine') сборка от Jun 6 2010 16:18:42
Библиотека кодирования : libebml v1.0.0 + libmatroska v1.0.0

Видео
Идентификатор : 1
Формат : AVC
Формат/Информация : Advanced Video Codec
Профиль формата : High@L4.1
Параметр CABAC формата : Да
Параметр ReFrames формата : 5 кадров
Идентификатор кодека : V_MPEG4/ISO/AVC
Продолжительность : 1 ч. 47 м.
Битрейт : 5208 Кбит/сек
Ширина : 1920 пикселей
Высота : 800 пикселей
Соотношение сторон : 2,40:1
Частота кадров : 23,976 кадра/сек
Цветовое пространство : YUV
Субдискретизация насыщенности : 4:2:0
Битовая глубина : 8 бит
Тип развёртки : Прогрессивная
Бит/(Пиксели*Кадры) : 0.141
Размер потока : 3,81 Гбайт (87%)
Библиотека кодирования : x264 core 119 r2106 07efeb4
Настройки программы : cabac=1 / ref=5 / deblock=1:0:0 / analyse=0x3:0x133 / me=umh / subme=10 / psy=1 / psy_rd=1.00:0.00 / mixed_ref=1 / me_range=32 / chroma_me=1 / trellis=2 / 8x8dct=1 / cqm=0 / deadzone=21,11 / fast_pskip=0 / chroma_qp_offset=-2 / threads=12 / sliced_threads=0 / nr=0 / decimate=1 / interlaced=0 / bluray_compat=0 / constrained_intra=0 / bframes=3 / b_pyramid=2 / b_adapt=2 / b_bias=0 / direct=3 / weightb=1 / open_gop=0 / weightp=2 / keyint=240 / keyint_min=24 / scenecut=40 / intra_refresh=0 / rc_lookahead=60 / rc=2pass / mbtree=1 / bitrate=5208 / ratetol=1.0 / qcomp=0.60 / qpmin=0 / qpmax=69 / qpstep=4 / cplxblur=20.0 / qblur=0.5 / ip_ratio=1.40 / aq=1:1.00
Язык : English

Аудио
Идентификатор : 2
Формат : AC-3
Формат/Информация : Audio Coding 3
Расширение режима : CM (complete main)
Идентификатор кодека : A_AC3
Продолжительность : 1 ч. 47 м.
Вид битрейта : Постоянный
Битрейт : 640 Кбит/сек
Каналы : 6 каналов
Расположение каналов : Front: L C R, Side: L R, LFE
Частота : 48,0 КГц
Битовая глубина : 16 бит
Метод сжатия : С потерями
Размер потока : 490 Мбайт (11%)
Язык : Russian

Текст #1
Идентификатор : 3
Формат : UTF-8
Идентификатор кодека : S_TEXT/UTF8
Идентификатор кодека/Информация : UTF-8 Plain Text
Язык : Russian

Текст #2
Идентификатор : 4
Формат : UTF-8
Идентификатор кодека : S_TEXT/UTF8
Идентификатор кодека/Информация : UTF-8 Plain Text
Язык : Russian

Текст #3
Идентификатор : 5
Формат : UTF-8
Идентификатор кодека : S_TEXT/UTF8
Идентификатор кодека/Информация : UTF-8 Plain Text
Язык : English

Меню
00:00:00.000 : :Chapter 01
00:01:29.172 : :Chapter 02
00:04:47.578 : :Chapter 03
00:07:43.671 : :Chapter 04
00:12:07.893 : :Chapter 05
00:17:48.942 : :Chapter 06
00:20:01.324 : :Chapter 07
00:22:51.536 : :Chapter 08
00:26:34.634 : :Chapter 09
00:30:30.161 : :Chapter 10
00:32:41.959 : :Chapter 11
00:34:13.509 : :Chapter 12
00:37:15.566 : :Chapter 13
00:40:44.149 : :Chapter 14
00:42:53.153 : :Chapter 15
00:46:18.567 : :Chapter 16
00:46:57.939 : :Chapter 17
00:49:48.526 : :Chapter 18
00:53:56.399 : :Chapter 19
00:54:57.251 : :Chapter 20
00:57:36.202 : :Chapter 21
00:59:27.730 : :Chapter 22
01:02:16.941 : :Chapter 23
01:05:56.285 : :Chapter 24
01:12:31.763 : :Chapter 25
01:14:05.899 : :Chapter 26
01:15:24.185 : :Chapter 27
01:21:12.992 : :Chapter 28
01:23:22.246 : :Chapter 29
01:29:06.924 : :Chapter 30
01:31:48.126 : :Chapter 31
01:32:41.221 : :Chapter 32
01:38:18.600 : :Chapter 33
01:47:01.122 : :Chapter 34



   Похожие торренты   Торрент   Размер 
В этой теме нет новых непрочитанных сообщений. Тачки / Тачки 2 / Мультачки: Байки Мэтра / Cars / Cars 2 / Mater's Tall Tales (2006-2011) 3xDVD9 от Youtracker | D | Лицензия

28 | 28

21.76 ГБ

В этой теме нет новых непрочитанных сообщений. Тачки 2 / Cars 2 (2011) BDRip 1080p by DHT-Movies

8 | 4

6 ГБ

В этой теме нет новых непрочитанных сообщений. Тачки 2 3D / Cars 2 3D (2011) BDRip 1080p | 3D-Video

15 | 7

7.97 ГБ

В этой теме нет новых непрочитанных сообщений. Тачки 2 / Cars 2 (2011) BDRip 1080p от Youtracker | 3D-Video

34 | 9

10.04 ГБ

В этой теме нет новых непрочитанных сообщений. Тачки 2 / Cars 2 (2011) BDRip 1080p от Leonardo and Scarabey | Лицензия

405 | 37

5.29 ГБ

В этой теме нет новых непрочитанных сообщений. Тачки: Дилогия / Cars: Dilogy (2006-2011) BDRip 1080p от NoLimits-Team

11 | 4

15.9 ГБ

В этой теме нет новых непрочитанных сообщений. Тачки / Cars (2006) BDRip 1080p

94 | 26

4.37 ГБ




Вы не можете начинать темы
Вы не можете отвечать на сообщения
Вы не можете редактировать свои сообщения
Вы не можете удалять свои сообщения
Вы не можете добавлять вложения

Перейти:  
Для Мосгорсуда, Роскомнадзора и рекламодателей: mosgorsud-torrent[собачка]yandex.ru
 Вход
ppkBB3cker v.2 © 2008-2014 @ PPK
[ Time : 0.557s | 13 Queries | GZIP : Off ]
CGP output time : 0.014s | 5 Queries | GZIP : Off

Торрент трекер RUTOR.IN, Не можете зайти на rutor.org? Какой новый адрес рутор? Какое зеркало рутор? Не работает rutor.org и зеркала? Тогда наш торрент специально для вас. Rutor.in неофициальное зеркало rutor. В случае если у Вас заблокирован rutor или вдруг Вы не можете на него зайти, то Вы без труда сможете скачать бесплатно и без рекламы последние новинки кино, игр, сериалов и прочего у нас, на Rutor.in. Не нужно использовать прокси, чтобы зайти на рутор, достаточно воспользоваться нашим ресурсом. Все новые фильмы, игры, сериалы, книги и музыка за 2013 и 2014 годы через торрент бесплатно. Скачивайте фильмы в хорошем качестве, игры для пк, xbox, playstation без регистрации. У нас вы найдете новые Зарубежные сериалы и Русские сериалы 2013, 2014, 2015 годов. Оставайтесь с нами, качайте любимые фильмы, игры, сериалы, книги и музыку.