img image001 image001 image001 image001 image001 image001 image001 image001 image001 image001 image001 image001 image001 image001 image001

Planets Sun Sun Sun
Статистика раздачи
Автор: Снежана | Размер: 4.37 ГБ | Добавлен: 27 июл 2013
Раздают: 218    Качают: 125
Скачать торрент
Скачать торрент
Описание торрента

СообщениеДобавлено: 27 июл 2013 

#77

Информация о фильме
Название: Полярный экспресс
Оригинальное название: The Polar Express
Год выхода: 2004
Жанр: мультфильм, фэнтези, приключения, семейный
Режиссер: Роберт Земекис
В ролях: Том Хэнкс, Майкл Джитер, Нона Гей, Питер Сколари, Эдди Дизен, Лесли Хартер Земекис, Чарльз Флайшер, Джош Эли, Марк Мендонка, Роландас Хендрикс

О фильме: Экранизация одноименной детской книги о необыкновенном путешествии маленького мальчика на волшебном поезде «Полярный экспресс» на Северный полюс к Санта-Клаусу в канун Рождества…


Выпущено: Warner Bros. Pictures
Продолжительность: 01:39:57
Перевод: Дублированный

Файл
Кодек: x264
Качество: BDRip (источник: Blu-ray Disc)
Видео: 1920x792 (2,40:1), 23.976 fps, 4984 kbps
Аудио #1: 48 kHz, AC-3, 6 ch, 640 kbps (Rus)
Аудио #2: 48 kHz, AC-3, 6 ch, 640 kbps (Eng)
Субтитры: Русские, Английские
Скачать: сэмпл

Скриншоты

Общее
Уникальный идентификатор : 240256424063419135291849065533297859386 (0xB4BFB442BFD304CA9145FB0FE74B1B3A)
Полное имя : The.Polar.Express.2004.BDRip.1080p.Rus.Eng.mkv
Формат : Matroska
Версия формата : Version 2
Размер файла : 4,37 Гбайт
Продолжительность : 1 ч. 39 м.
Общий поток : 6265 Кбит/сек
Дата кодирования : UTC 2011-11-03 09:18:28
Программа кодирования : mkvmerge v4.0.0 ('The Stars were mine') сборка от Jun 6 2010 16:18:42
Библиотека кодирования : libebml v1.0.0 + libmatroska v1.0.0

Видео
Идентификатор : 1
Формат : AVC
Формат/Информация : Advanced Video Codec
Профиль формата : High@L4.1
Параметр CABAC формата : Да
Параметр ReFrames формата : 5 кадров
Идентификатор кодека : V_MPEG4/ISO/AVC
Продолжительность : 1 ч. 39 м.
Битрейт : 4984 Кбит/сек
Ширина : 1920 пикселей
Высота : 792 пикселя
Соотношение сторон : 2,40:1
Частота кадров : 23,976 кадра/сек
Цветовое пространство : YUV
Субдискретизация насыщенности : 4:2:0
Битовая глубина : 8 бит
Тип развёртки : Прогрессивная
Бит/(Пиксели*Кадры) : 0.137
Размер потока : 3,39 Гбайт (78%)
Библиотека кодирования : x264 core 119 r2106 07efeb4
Настройки программы : cabac=1 / ref=5 / deblock=1:-3:-3 / analyse=0x3:0x133 / me=umh / subme=10 / psy=1 / psy_rd=1.00:0.00 / mixed_ref=1 / me_range=32 / chroma_me=1 / trellis=2 / 8x8dct=1 / cqm=0 / deadzone=21,11 / fast_pskip=0 / chroma_qp_offset=-2 / threads=12 / sliced_threads=0 / nr=0 / decimate=0 / interlaced=0 / bluray_compat=0 / constrained_intra=0 / bframes=2 / b_pyramid=2 / b_adapt=2 / b_bias=0 / direct=3 / weightb=1 / open_gop=0 / weightp=2 / keyint=240 / keyint_min=24 / scenecut=40 / intra_refresh=0 / rc_lookahead=60 / rc=2pass / mbtree=1 / bitrate=4984 / ratetol=1.0 / qcomp=0.60 / qpmin=0 / qpmax=69 / qpstep=4 / cplxblur=20.0 / qblur=0.5 / ip_ratio=1.40 / aq=1:1.00
Язык : English

Аудио #1
Идентификатор : 2
Формат : AC-3
Формат/Информация : Audio Coding 3
Расширение режима : CM (complete main)
Идентификатор кодека : A_AC3
Продолжительность : 1 ч. 39 м.
Вид битрейта : Постоянный
Битрейт : 640 Кбит/сек
Каналы : 6 каналов
Расположение каналов : Front: L C R, Side: L R, LFE
Частота : 48,0 КГц
Битовая глубина : 16 бит
Метод сжатия : С потерями
Размер потока : 457 Мбайт (10%)
Язык : Russian

Аудио #2
Идентификатор : 3
Формат : AC-3
Формат/Информация : Audio Coding 3
Расширение режима : CM (complete main)
Идентификатор кодека : A_AC3
Продолжительность : 1 ч. 39 м.
Вид битрейта : Постоянный
Битрейт : 640 Кбит/сек
Каналы : 6 каналов
Расположение каналов : Front: L C R, Side: L R, LFE
Частота : 48,0 КГц
Битовая глубина : 16 бит
Метод сжатия : С потерями
Размер потока : 457 Мбайт (10%)
Язык : English

Текст #1
Идентификатор : 4
Формат : UTF-8
Идентификатор кодека : S_TEXT/UTF8
Идентификатор кодека/Информация : UTF-8 Plain Text
Язык : Russian

Текст #2
Идентификатор : 5
Формат : UTF-8
Идентификатор кодека : S_TEXT/UTF8
Идентификатор кодека/Информация : UTF-8 Plain Text
Язык : English

Меню
00:00:00.000 : :Chapter 01
00:05:07.473 : :Chapter 02
00:09:46.919 : :Chapter 03
00:15:16.415 : :Chapter 04
00:18:19.765 : :Chapter 05
00:23:08.220 : :Chapter 06
00:28:07.519 : :Chapter 07
00:33:43.688 : :Chapter 08
00:35:25.289 : :Chapter 09
00:41:37.328 : :Chapter 10
00:44:45.015 : :Chapter 11
00:47:06.156 : :Chapter 12
00:49:18.622 : :Chapter 13
00:53:25.869 : :Chapter 14
00:57:18.435 : :Chapter 15
01:01:08.998 : :Chapter 16
01:05:55.785 : :Chapter 17
01:09:55.191 : :Chapter 18
01:12:56.205 : :Chapter 19
01:16:28.250 : :Chapter 20
01:19:37.939 : :Chapter 21
01:21:51.406 : :Chapter 22
01:27:10.058 : :Chapter 23
01:31:21.142 : :Chapter 24
01:39:56.156 : :Chapter 25



   Похожие торренты   Торрент   Размер 
В этой теме нет новых непрочитанных сообщений. Полярный экспресс 3Д / The Polar Express 3D (2004) BDRip 1080p | 3D

25 | 9

10.02 ГБ

В этой теме нет новых непрочитанных сообщений. Полярный экспресс / The Polar Express (2004) BDRip 1080p от Youtracker | 3D-Video

73 | 8

9.63 ГБ

В этой теме нет новых непрочитанных сообщений. Полярный Экспресс / The Polar Express (2004) BDRip-AVC от ExKinoRay | D

310 | 9

2.44 ГБ

В этой теме нет новых непрочитанных сообщений. Полярный Экспресс / Polar Express (2004) BDRip-AVC от Alexandrov1994 | D, P, A

79 | 14

3.93 ГБ

В этой теме нет новых непрочитанных сообщений. Полярный Экспресс / The Polar Express (2004) BDRip 720p

19 | 9

4.38 ГБ

В этой теме нет новых непрочитанных сообщений. Полярный экспресс / The Polar Express (2004) BDRip от HQCLUB

978 | 39

1.45 ГБ

В этой теме нет новых непрочитанных сообщений. Полярный экспресс 3Д / The Polar Express 3D (2004) BDRip 720p | 3D

16 | 4

3.54 ГБ




Вы не можете начинать темы
Вы не можете отвечать на сообщения
Вы не можете редактировать свои сообщения
Вы не можете удалять свои сообщения
Вы не можете добавлять вложения

Перейти:  
Для Мосгорсуда, Роскомнадзора и рекламодателей: mosgorsud-torrent[собачка]yandex.ru
 Вход
ppkBB3cker v.2 © 2008-2014 @ PPK
[ Time : 54.340s | 14 Queries | GZIP : Off ]
CGP output time : 0.019s | 5 Queries | GZIP : Off

Торрент трекер RUTOR.IN, Не можете зайти на rutor.org? Какой новый адрес рутор? Какое зеркало рутор? Не работает rutor.org и зеркала? Тогда наш торрент специально для вас. Rutor.in неофициальное зеркало rutor. В случае если у Вас заблокирован rutor или вдруг Вы не можете на него зайти, то Вы без труда сможете скачать бесплатно и без рекламы последние новинки кино, игр, сериалов и прочего у нас, на Rutor.in. Не нужно использовать прокси, чтобы зайти на рутор, достаточно воспользоваться нашим ресурсом. Все новые фильмы, игры, сериалы, книги и музыка за 2013 и 2014 годы через торрент бесплатно. Скачивайте фильмы в хорошем качестве, игры для пк, xbox, playstation без регистрации. У нас вы найдете новые Зарубежные сериалы и Русские сериалы 2013, 2014, 2015 годов. Оставайтесь с нами, качайте любимые фильмы, игры, сериалы, книги и музыку.