img image001 image001 image001 image001 image001 image001 image001 image001 image001 image001 image001 image001 image001 image001 image001

Planets Sun Sun Sun
Статистика раздачи
Автор: Снежана | Размер: 5 ГБ | Добавлен: 27 июл 2013
Раздают: 20    Качают: 3
Скачать торрент
Скачать торрент
Описание торрента

СообщениеДобавлено: 27 июл 2013 

#77

Название: Золушка
Оригинальное название: Cinderella
Год выхода: 1950
Страна: США
Жанр: мультфильм, мюзикл, фэнтези, мелодрама, семейный, детский
Режиссер: Клайд Джероними / Clyde Geronimi, Уилфред Джексон / Wilfred Jackson, Хэмильтон Ласки / Hamilton Luske
В ролях: Илен Вудс, Хелен Стэнли, Элинор Одли, Луис Ван Рутен, Верна Фелтон, Дон Барклай, Клер Дю Бри, Рода Уильямс, Джеймс МакДональд, Люсиль Блисс

О фильме: Золушка - бедная сиротка, которую злая мачеха и ее вздорные дочки, заставляют тяжко работать с утра до ночи. Она так хочет попасть на королевский бал. На помощь бедняжке приходит Добрая фея! Силой волшебства она наделяет Золушку роскошной каретой, чудесным платьем и необыкновенными хрустальными башмачками.

Информация о файле:
Качество: HDTVRip 1080p
Продолжительность: 01:15:06
Язык (перевод):
1) русский дублированный (R1 "Superbit - СРИ")
2) русский многоголосый закадровый (R1 "Superbit - СРИ")
3) русский многоголосый закадровый (R5)
4) русский одноголосый закадровый (Алексей Михалёв)
5) русский одноголосый закадровый (Алексей Михалёв - ранний)
6) оригинальная английская дорожка
Субтитры: русские, английские
Формат: MKV

Видео: 1456x1080p; 23,976 fps; 7360 Kbps
Аудио 1: AC3; 6 Ch; 48.0 KHz; 448 Kbps
Аудио 2: AC3; 6 Ch; 48.0 KHz; 448 Kbps
Аудио 3: AC3; 2 Ch; 48.0 KHz; 192 Kbps
Аудио 4: AC3; 6 Ch; 48.0 KHz; 448 Kbps
Аудио 5: AC3; 2 Ch; 48.0 KHz; 192 Kbps
Аудио 6: AC3; 6 Ch; 48.0 KHz; 448 Kbps
General
Complete name : E:MyRazdZolushka.1950.HDTVRip-AVC.1080p.mkv
Format : Matroska
File size : 5.00 GiB
Duration : 1h 15mn
Overall bit rate : 9 540 Kbps
Movie name : Zolushka.1950.HDTVRip-AVC.1080p by pan29
Encoded date : UTC 2011-01-01 07:42:40
Writing application : mkvmerge v3.2.0 ('Beginnings') built on Feb 12 2010 16:46:17
Writing library : libebml v0.7.9 + libmatroska v0.8.1

Video
ID : 1
Format : AVC
Format/Info : Advanced Video Codec
Format profile : High@L4.1
Format settings, CABAC : Yes
Format settings, ReFrames : 5 frames
Muxing mode : Container profile=Unknown@4.1
Codec ID : V_MPEG4/ISO/AVC
Duration : 1h 15mn
Bit rate : 7 174 Kbps
Nominal bit rate : 7 360 Kbps
Width : 1 456 pixels
Height : 1 080 pixels
Display aspect ratio : 4:3
Frame rate : 23.976 fps
Resolution : 24 bits
Colorimetry : 4:2:0
Scan type : Progressive
Bits/(Pixel*Frame) : 0.190
Stream size : 3.76 GiB (75%)
Title : Zolushka.1950.HDTVRip-AVC.1080p
Writing library : x264 core 112 r1834 a51816a
Encoding settings : cabac=1 / ref=5 / deblock=1:-1:0 / analyse=0x3:0x113 / me=umh / subme=9 / psy=1 / psy_rd=0.40:0.00 / mixed_ref=1 / me_range=24 / chroma_me=1 / trellis=2 / 8x8dct=1 / cqm=0 / deadzone=21,11 / fast_pskip=0 / chroma_qp_offset=-2 / threads=3 / sliced_threads=0 / nr=0 / decimate=0 / interlaced=0 / constrained_intra=0 / bframes=3 / b_pyramid=2 / b_adapt=2 / b_bias=0 / direct=3 / weightb=1 / open_gop=0 / weightp=2 / keyint=250 / keyint_min=23 / scenecut=40 / intra_refresh=0 / rc_lookahead=40 / rc=2pass / mbtree=1 / bitrate=7360 / ratetol=1.0 / qcomp=0.70 / qpmin=0 / qpmax=51 / qpstep=4 / cplxblur=20.0 / qblur=0.5 / vbv_maxrate=50000 / vbv_bufsize=50000 / ip_ratio=1.40 / aq=1:0.60 / nal_hrd=none
Language : English

Audio #1
ID : 2
Format : AC-3
Format/Info : Audio Coding 3
Codec ID : A_AC3
Duration : 1h 15mn
Bit rate mode : Constant
Bit rate : 448 Kbps
Channel(s) : 6 channels
Channel positions : Front: L C R, Surround: L R, LFE
Sampling rate : 48.0 KHz
Stream size : 241 MiB (5%)
Title : Dub
Language : Russian

Audio #2
ID : 3
Format : AC-3
Format/Info : Audio Coding 3
Codec ID : A_AC3
Duration : 1h 15mn
Bit rate mode : Constant
Bit rate : 448 Kbps
Channel(s) : 6 channels
Channel positions : Front: L C R, Surround: L R, LFE
Sampling rate : 48.0 KHz
Stream size : 241 MiB (5%)
Title : MVO (Superbit)
Language : Russian

Audio #3
ID : 4
Format : AC-3
Format/Info : Audio Coding 3
Codec ID : A_AC3
Duration : 1h 15mn
Bit rate mode : Constant
Bit rate : 192 Kbps
Channel(s) : 2 channels
Channel positions : L R
Sampling rate : 48.0 KHz
Stream size : 103 MiB (2%)
Title : MVO (R5)
Language : Russian

Audio #4
ID : 5
Format : AC-3
Format/Info : Audio Coding 3
Codec ID : A_AC3
Duration : 1h 15mn
Bit rate mode : Constant
Bit rate : 448 Kbps
Channel(s) : 6 channels
Channel positions : Front: L C R, Surround: L R, LFE
Sampling rate : 48.0 KHz
Stream size : 241 MiB (5%)
Title : Michalev
Language : Russian

Audio #5
ID : 6
Format : AC-3
Format/Info : Audio Coding 3
Codec ID : A_AC3
Duration : 1h 15mn
Bit rate mode : Constant
Bit rate : 192 Kbps
Channel(s) : 2 channels
Channel positions : L R
Sampling rate : 48.0 KHz
Stream size : 103 MiB (2%)
Title : Mihalev (rannii)
Language : Russian

Audio #6
ID : 7
Format : AC-3
Format/Info : Audio Coding 3
Codec ID : A_AC3
Duration : 1h 15mn
Bit rate mode : Constant
Bit rate : 448 Kbps
Channel(s) : 6 channels
Channel positions : Front: L C R, Surround: L R, LFE
Sampling rate : 48.0 KHz
Stream size : 241 MiB (5%)
Title : Original
Language : English

Text #1
ID : 8
Format : UTF-8
Codec ID : S_TEXT/UTF8
Codec ID/Info : UTF-8 Plain Text
Language : Russian

Text #2
ID : 9
Format : UTF-8
Codec ID : S_TEXT/UTF8
Codec ID/Info : UTF-8 Plain Text
Language : English

Menu
00:00:00.000 : :1. Opening Credits
00:01:23.000 : :2. Once Upon a Time...
00:04:20.000 : :3. "A Dream Is a Wish Your Heart Makes"
00:07:36.000 : :4. A New Mouse in the House
00:10:13.000 : :5. Lucifer
00:13:26.000 : :6. Sneaking Past Lucifer
00:17:35.000 : :7. Cat and Mouse
00:22:03.000 : :8. Lady Tremaine
00:23:30.000 : :9. Plans Afoot at the Palace
00:26:03.000 : :10. "Sing Sweet Nightingale"
00:27:50.000 : :11. A Royal Invitation
00:30:07.000 : :12. A New Dress for Cinderella ("The Work Song")
00:32:36.000 : :13. A Mission for Jaq and Gus
00:36:47.000 : :14. Finishing the Dress
00:38:21.000 : :15. Time to Leave for the Ball
00:41:34.000 : :16. Cinderella's Fairy Godmother
00:44:10.000 : :17. "Bibbidi-Bobbidi-Boo"
00:48:21.000 : :18. The Ball at the Palace
00:51:15.000 : :19. "So This Is Love"
00:56:54.000 : :20. Breaking the Bad News to the King
01:00:39.000 : :21. Lady Tremaine's Plan
01:04:44.000 : :22. The Duke Arrives
01:07:57.000 : :23. Rescuing Cinderella
01:11:50.000 : :24. Cinderella Tries on the Glass Slipper




   Похожие торренты   Торрент   Размер 
В этой теме нет новых непрочитанных сообщений. Золушка / Cinderella (1950) HDTVRip 1080p от Freeisland

34 | 8

4.38 ГБ

В этой теме нет новых непрочитанных сообщений. Золушка / Cinderella (1950) BDRip 1080p от R.G. HD-Films | 60 fps

92 | 19

6.75 ГБ

В этой теме нет новых непрочитанных сообщений. Золушка / Cinderella (1950) HDTVRip-AVC от Enigma

86 | 12

2.09 ГБ

В этой теме нет новых непрочитанных сообщений. Золушка / Cinderella (1950) HDTVRip 720p

97 | 4

2.91 ГБ

В этой теме нет новых непрочитанных сообщений. Золушка: Трилогия / Cinderella: Trilogy (1950-2007) BDRip 1080p

517 | 64

13.14 ГБ

В этой теме нет новых непрочитанных сообщений. Золушка / Cinderella (1950) BDRip от HQCLUB

1463 | 44

1.45 ГБ

В этой теме нет новых непрочитанных сообщений. Золушка / Cinderella (1950) BDRip от MediaClub | КПК

595 | 27

339.16 МБ




Вы не можете начинать темы
Вы не можете отвечать на сообщения
Вы не можете редактировать свои сообщения
Вы не можете удалять свои сообщения
Вы не можете добавлять вложения

Перейти:  
Для Мосгорсуда, Роскомнадзора и рекламодателей: mosgorsud-torrent[собачка]yandex.ru
 Вход
ppkBB3cker v.2 © 2008-2014 @ PPK
[ Time : 0.056s | 14 Queries | GZIP : Off ]

Торрент трекер RUTOR.IN, Не можете зайти на rutor.org? Какой новый адрес рутор? Какое зеркало рутор? Не работает rutor.org и зеркала? Тогда наш торрент специально для вас. Rutor.in неофициальное зеркало rutor. В случае если у Вас заблокирован rutor или вдруг Вы не можете на него зайти, то Вы без труда сможете скачать бесплатно и без рекламы последние новинки кино, игр, сериалов и прочего у нас, на Rutor.in. Не нужно использовать прокси, чтобы зайти на рутор, достаточно воспользоваться нашим ресурсом. Все новые фильмы, игры, сериалы, книги и музыка за 2013 и 2014 годы через торрент бесплатно. Скачивайте фильмы в хорошем качестве, игры для пк, xbox, playstation без регистрации. У нас вы найдете новые Зарубежные сериалы и Русские сериалы 2013, 2014, 2015 годов. Оставайтесь с нами, качайте любимые фильмы, игры, сериалы, книги и музыку.