img image001 image001 image001 image001 image001 image001 image001 image001 image001 image001 image001 image001 image001 image001 image001

Planets Sun Sun Sun
Статистика раздачи
Автор: Снежана | Размер: 4.37 ГБ | Добавлен: 27 июл 2013
Раздают: 161    Качают: 34
Скачать торрент
Скачать торрент
Описание торрента

СообщениеДобавлено: 27 июл 2013 

#77

Информация о фильме
Название: Сезон охоты
Оригинальное название: Open Season
Год выхода: 2006
Жанр: мультфильм, комедия, приключения, семейный
Режиссер: Роджер Аллерс, Джилл Калтон, Энтони Стаччи
В ролях: Мартин Лоуренс, Эштон Катчер, Гэри Синиз, Дебра Мессинг, Билли Коннолли, Джорджия Энджел, Джон Фавро, Джейн Краковски, Гордон Тутусис, Патрик Варбертон

О фильме: Выросший среди людей гризли оказывается в лесу в самый разгар охотничьего сезона. И пока ухаживавший за медведем егерь ищет своего воспитанника, гризли водит дружбу с лесным оленем.


Выпущено: Columbia Picturess
Продолжительность: 01:26:15
Перевод: Дублированный

Файл
Кодек: x264
Качество: BDRip (источник: Blu-ray Disc)
Видео: 1920x1040 (16:9), 23.976 fps, 5979 kbps
Аудио #1: 48 kHz, AC-3, 6 ch, 640 kbps (Rus)
Аудио #2: 48 kHz, AC-3, 6 ch, 640 kbps (Eng)
Субтитры: Русские (форс), Английские
Скачать: сэмпл

Скриншоты

Общее
Уникальный идентификатор : 242878886438880475312110226260106046834 (0xB6B8C5A371A665E3BB898E7F0B4A6D72)
Полное имя : Open.Season.2006.BDRip.1080p.Rus.Eng.mkv
Формат : Matroska
Версия формата : Version 2
Размер файла : 4,37 Гбайт
Продолжительность : 1 ч. 26 м.
Общий поток : 7259 Кбит/сек
Дата кодирования : UTC 2011-11-07 17:16:22
Программа кодирования : mkvmerge v4.0.0 ('The Stars were mine') сборка от Jun 6 2010 16:18:42
Библиотека кодирования : libebml v1.0.0 + libmatroska v1.0.0

Видео
Идентификатор : 1
Формат : AVC
Формат/Информация : Advanced Video Codec
Профиль формата : High@L4.1
Параметр CABAC формата : Да
Параметр ReFrames формата : 4 кадра
Идентификатор кодека : V_MPEG4/ISO/AVC
Продолжительность : 1 ч. 26 м.
Битрейт : 5979 Кбит/сек
Ширина : 1920 пикселей
Высота : 1040 пикселей
Соотношение сторон : 16:9
Частота кадров : 23,976 кадра/сек
Цветовое пространство : YUV
Субдискретизация насыщенности : 4:2:0
Битовая глубина : 8 бит
Тип развёртки : Прогрессивная
Бит/(Пиксели*Кадры) : 0.125
Размер потока : 3,52 Гбайт (80%)
Библиотека кодирования : x264 core 119 r2106 07efeb4
Настройки программы : cabac=1 / ref=4 / deblock=1:0:0 / analyse=0x3:0x133 / me=umh / subme=10 / psy=1 / psy_rd=1.00:0.00 / mixed_ref=1 / me_range=32 / chroma_me=1 / trellis=2 / 8x8dct=1 / cqm=0 / deadzone=21,11 / fast_pskip=0 / chroma_qp_offset=-2 / threads=12 / sliced_threads=0 / nr=0 / decimate=1 / interlaced=0 / bluray_compat=0 / constrained_intra=0 / bframes=3 / b_pyramid=2 / b_adapt=2 / b_bias=0 / direct=3 / weightb=1 / open_gop=0 / weightp=2 / keyint=240 / keyint_min=24 / scenecut=40 / intra_refresh=0 / rc_lookahead=60 / rc=2pass / mbtree=1 / bitrate=5979 / ratetol=1.0 / qcomp=0.60 / qpmin=0 / qpmax=69 / qpstep=4 / cplxblur=20.0 / qblur=0.5 / ip_ratio=1.40 / aq=1:1.00
Язык : English

Аудио #1
Идентификатор : 2
Формат : AC-3
Формат/Информация : Audio Coding 3
Расширение режима : CM (complete main)
Идентификатор кодека : A_AC3
Продолжительность : 1 ч. 26 м.
Вид битрейта : Постоянный
Битрейт : 640 Кбит/сек
Каналы : 6 каналов
Расположение каналов : Front: L C R, Side: L R, LFE
Частота : 48,0 КГц
Битовая глубина : 16 бит
Метод сжатия : С потерями
Размер потока : 395 Мбайт (9%)
Язык : Russian

Аудио #2
Идентификатор : 3
Формат : AC-3
Формат/Информация : Audio Coding 3
Расширение режима : CM (complete main)
Идентификатор кодека : A_AC3
Продолжительность : 1 ч. 26 м.
Вид битрейта : Постоянный
Битрейт : 640 Кбит/сек
Каналы : 6 каналов
Расположение каналов : Front: L C R, Side: L R, LFE
Частота : 48,0 КГц
Битовая глубина : 16 бит
Метод сжатия : С потерями
Размер потока : 395 Мбайт (9%)
Язык : English

Текст #1
Идентификатор : 4
Формат : UTF-8
Идентификатор кодека : S_TEXT/UTF8
Идентификатор кодека/Информация : UTF-8 Plain Text
Язык : Russian

Текст #2
Идентификатор : 5
Формат : UTF-8
Идентификатор кодека : S_TEXT/UTF8
Идентификатор кодека/Информация : UTF-8 Plain Text
Язык : English

Меню
00:00:00.000 : :Chapter 01
00:05:59.984 : :Chapter 02
00:09:12.969 : :Chapter 03
00:16:57.015 : :Chapter 04
00:21:28.704 : :Chapter 05
00:23:41.837 : :Chapter 06
00:28:17.779 : :Chapter 07
00:33:53.614 : :Chapter 08
00:38:15.751 : :Chapter 09
00:45:34.022 : :Chapter 10
00:50:20.726 : :Chapter 11
00:56:51.616 : :Chapter 12
01:02:02.552 : :Chapter 13
01:07:43.601 : :Chapter 14
01:12:14.329 : :Chapter 15
01:14:59.119 : :Chapter 16



   Похожие торренты   Торрент   Размер 
В этой теме нет новых непрочитанных сообщений. Сезон охоты / Open Season (2006) BDRip 1080p

50 | 11

7.09 ГБ

В этой теме нет новых непрочитанных сообщений. Сезон охоты 3D / Open Season 3D (2006) BDRip 1080p | 3D

21 | 6

6.41 ГБ

В этой теме нет новых непрочитанных сообщений. Сезон охоты / Open Season (2006) BDrip 1080p | 3D-Video

9 | 3

11.13 ГБ

В этой теме нет новых непрочитанных сообщений. Сезон охоты / Open Season (2006) BDRip-AVC | iPad | D

115 | 17

2.11 ГБ

В этой теме нет новых непрочитанных сообщений. Сезон охоты / Open Season (2006) BDRip 720p

117 | 16

5.53 ГБ

В этой теме нет новых непрочитанных сообщений. Сезон охоты / Open Season (2006) BDRip от HQCLUB

68 | 16

1.99 ГБ

В этой теме нет новых непрочитанных сообщений. Сезон охоты / Open Season (2006) BDRip от HELLYWOOD

885 | 112

1.99 ГБ




Вы не можете начинать темы
Вы не можете отвечать на сообщения
Вы не можете редактировать свои сообщения
Вы не можете удалять свои сообщения
Вы не можете добавлять вложения

Перейти:  
Для Мосгорсуда, Роскомнадзора и рекламодателей: mosgorsud-torrent[собачка]yandex.ru
 Вход
ppkBB3cker v.2 © 2008-2014 @ PPK
[ Time : 0.045s | 13 Queries | GZIP : On ]
CGP output time : 0.033s | 5 Queries | GZIP : On

Торрент трекер RUTOR.IN, Не можете зайти на rutor.org? Какой новый адрес рутор? Какое зеркало рутор? Не работает rutor.org и зеркала? Тогда наш торрент специально для вас. Rutor.in неофициальное зеркало rutor. В случае если у Вас заблокирован rutor или вдруг Вы не можете на него зайти, то Вы без труда сможете скачать бесплатно и без рекламы последние новинки кино, игр, сериалов и прочего у нас, на Rutor.in. Не нужно использовать прокси, чтобы зайти на рутор, достаточно воспользоваться нашим ресурсом. Все новые фильмы, игры, сериалы, книги и музыка за 2013 и 2014 годы через торрент бесплатно. Скачивайте фильмы в хорошем качестве, игры для пк, xbox, playstation без регистрации. У нас вы найдете новые Зарубежные сериалы и Русские сериалы 2013, 2014, 2015 годов. Оставайтесь с нами, качайте любимые фильмы, игры, сериалы, книги и музыку.