img image001 image001 image001 image001 image001 image001 image001 image001 image001 image001 image001 image001 image001 image001 image001

Planets Sun Sun Sun
Статистика раздачи
Автор: Снежана | Размер: 3.54 ГБ | Добавлен: 27 июл 2013
Раздают: 13    Качают: 7
Скачать торрент
Скачать торрент
Описание торрента

СообщениеДобавлено: 27 июл 2013 

Sonic the Hedgehog: The Movie



Дата выпуска в Японии: 31 мая 1996 года
Дата выпуска в США и Канаде: 9 сентября 1999 года
Производство: Япония; General Entertainment Co. Ltd., Sega Enterprises
Жанр: Приключения / экшен / комедия
Продолжительность: 00:53:52
Перевод: Любительский (одноголосый)
Оригинальный аудиопоток: Японский, английский

Режиссер: Казунори Икегами / Kazunori Ikegami

В ролях:
Японское озвучивание:
Masami Kikuchi - Sonic the Hedgehog, Metal Sonic
Hekiru Shiina - Miles "Tails" Prower
Yasunori Matsumoto - Knuckles the Echidna
Junpei Takiguchi - Dr. Eggman
Mika Kanai - Sara
Yuzuru Fujimoto - President
Chafurin - Old Man Owl

Английское озвучивание:
Martin Burke - Sonic the Hedgehog
Lainie Fraiser - Miles "Tails" Prower
Bill Wise - Knuckles the Echidna
Edwin Neal - Dr. Robotnik, The President
Sascha Biesi - Sara
Charles Campbell - Old Man Owl
Gary Dehan - Metal Sonic

Описание: Sonic the Hedgehog: The Movie — двухсерийный OVA-сериал, вышедший в Японии в 1996 году. В Америке обе серии были выпущены вместе, как единый полнометражный мультфильм.

Доктор Роботник (Эггман в Японской версии) создал очередной гениально злодейский план по покорению мира. Сонику и его друзьям нужно действовать быстро и решительно, чтобы его остановить. Но они ещё не знают, что в этот раз всё может оказаться намного сложнее, чем раньше.

В фильме присутствует захватывающий экшен, неожиданные повороты сюжета и искромётный юмор. В художественном плане, несомненно одно из лучших творений о Сонике.



Источник/Качество: DVD5
Формат: DVD Video
Стандарт разрешения: 480p
Видео кодек: MPEG2
Аудио кодек: AC3
Видео: 4:3 (720x480@720x540)) VBR ~ 6.24Mbps
Аудио: English (Dolby AC3, 2 ch, 192 Kbps)
Аудио #2: Japanese (Dolby AC3, 2 ch, 192 Kbps)
Аудио #3: Russian (Dolby AC3, 2 ch, 192Kbps)
Субтитры: Английские, испанские, русские

Автор сборки: Doronetty. Большая ему благодарность за это.

General
Complete name : E:СкачИзбранноеSonic the HedgehogВидеоSonic the Hedgehog - The MovieVTS_01_1.VOB
Format : MPEG-PS
File size : 1 024 MiB
Duration : 20mn 48s
Overall bit rate : 6 878 Kbps

Video
ID : 224 (0xE0)
Format : MPEG Video
Format version : Version 2
Format profile : Main@Main
Format settings, BVOP : Yes
Format settings, Matrix : Default
Format settings, GOP : M=3, N=13
Duration : 20mn 48s
Bit rate : 6 165 Kbps
Maximum bit rate : 5 500 Kbps
Width : 720 pixels
Height : 480 pixels
Display aspect ratio : 4:3
Frame rate : 29.970 fps
Standard : NTSC
Color space : YUV
Chroma subsampling : 4:2:0
Bit depth : 8 bits
Scan type : Progressive
Scan order : Top Field First
Compression mode : Lossy
Bits/(Pixel*Frame) : 0.595
Stream size : 918 MiB (90%)

Audio #1
ID : 189 (0xBD)-128 (0x80)
Format : AC-3
Format/Info : Audio Coding 3
Mode extension : CM (complete main)
Muxing mode : DVD-Video
Duration : 20mn 48s
Bit rate mode : Constant
Bit rate : 192 Kbps
Channel(s) : 2 channels
Channel positions : Front: L R
Sampling rate : 48.0 KHz
Bit depth : 16 bits
Compression mode : Lossy
Stream size : 28.6 MiB (3%)

Audio #2
ID : 189 (0xBD)-129 (0x81)
Format : AC-3
Format/Info : Audio Coding 3
Mode extension : CM (complete main)
Muxing mode : DVD-Video
Duration : 20mn 48s
Bit rate mode : Constant
Bit rate : 192 Kbps
Channel(s) : 2 channels
Channel positions : Front: L R
Sampling rate : 48.0 KHz
Bit depth : 16 bits
Compression mode : Lossy
Stream size : 28.6 MiB (3%)

Audio #3
ID : 189 (0xBD)-130 (0x82)
Format : AC-3
Format/Info : Audio Coding 3
Mode extension : CM (complete main)
Muxing mode : DVD-Video
Duration : 5s 440ms
Bit rate mode : Constant
Bit rate : 192 Kbps
Channel(s) : 2 channels
Channel positions : Front: L R
Sampling rate : 48.0 KHz
Bit depth : 16 bits
Compression mode : Lossy
Stream size : 128 KiB (0%)

Text #1
ID : 189 (0xBD)-32 (0x20)
Format : RLE
Format/Info : Run-length encoding
Muxing mode : DVD-Video

Text #2
ID : 189 (0xBD)-33 (0x21)
Format : RLE
Format/Info : Run-length encoding
Muxing mode : DVD-Video

Text #3
ID : 189 (0xBD)-34 (0x22)
Format : RLE
Format/Info : Run-length encoding
Muxing mode : DVD-Video

Menu











   Похожие торренты   Торрент   Размер 
В этой теме нет новых непрочитанных сообщений. Sonic the Hedgehog 2D (2011) PC

80 | 6

294.02 МБ

В этой теме нет новых непрочитанных сообщений. Sonic the Hedgehog (1991-2010) PC

214 | 50

4.49 ГБ

В этой теме нет новых непрочитанных сообщений. Sonic the Hedgehog CD (1993/2012) PC

25 | 26

268.49 МБ

В этой теме нет новых непрочитанных сообщений. Sonic the Hedgehog 4: Episode 2 [v 1.0r15] (2012) PC

94 | 11

298.19 МБ

В этой теме нет новых непрочитанных сообщений. Sonic the Hedgehog 4: Episode 1 [v 1.0r13] (2010-2012) PC

45 | 4

156.32 МБ

В этой теме нет новых непрочитанных сообщений. Sonic the Hedgehog 4: Episode II (2012) PC | RePack от R.G. ReCoding

38 | 3

248.29 МБ

В этой теме нет новых непрочитанных сообщений. Constance Demby - Sonic Immersion (1996) MP3 от BestSound ExKinoRay

9 | 6

109.65 МБ




Вы не можете начинать темы
Вы не можете отвечать на сообщения
Вы не можете редактировать свои сообщения
Вы не можете удалять свои сообщения
Вы не можете добавлять вложения

Перейти:  
Для Мосгорсуда, Роскомнадзора и рекламодателей: mosgorsud-torrent[собачка]yandex.ru
 Вход
ppkBB3cker v.2 © 2008-2014 @ PPK
[ Time : 0.069s | 14 Queries | GZIP : Off ]

Торрент трекер RUTOR.IN, Не можете зайти на rutor.org? Какой новый адрес рутор? Какое зеркало рутор? Не работает rutor.org и зеркала? Тогда наш торрент специально для вас. Rutor.in неофициальное зеркало rutor. В случае если у Вас заблокирован rutor или вдруг Вы не можете на него зайти, то Вы без труда сможете скачать бесплатно и без рекламы последние новинки кино, игр, сериалов и прочего у нас, на Rutor.in. Не нужно использовать прокси, чтобы зайти на рутор, достаточно воспользоваться нашим ресурсом. Все новые фильмы, игры, сериалы, книги и музыка за 2013 и 2014 годы через торрент бесплатно. Скачивайте фильмы в хорошем качестве, игры для пк, xbox, playstation без регистрации. У нас вы найдете новые Зарубежные сериалы и Русские сериалы 2013, 2014, 2015 годов. Оставайтесь с нами, качайте любимые фильмы, игры, сериалы, книги и музыку.