img image001 image001 image001 image001 image001 image001 image001 image001 image001 image001 image001 image001 image001 image001 image001

Planets Sun Sun Sun
Статистика раздачи
Автор: Снежана | Размер: 7.35 ГБ | Добавлен: 27 июл 2013
Раздают: 12    Качают: 3
Скачать торрент
Скачать торрент
Описание торрента

СообщениеДобавлено: 27 июл 2013 

#77

Информация о фильме
Название: Альфа и Омега: Клыкастая братва
Оригинальное название: Alpha and Omega
Год выхода: 2010
Жанр: комедия, приключения, семейный, мультфильм
Страна: США / Индия, Lions Gate Family Entertainment
Режиссер: Энтони Белл, Бен Глюк
Роли озвучивали: Джастин Лонг, Хайден Панеттьери, Деннис Хоппер, Дэнни Гловер, Ларри Миллер, Эрик Прайс, Викки Льюис, Крис Кармак, Кевин Суссман, Брайан Донован
Роли дублировали: Сергей Лазарев, Валерия Кудрявцева, Игорь Старосельцев, Василий Бочкарев, Александр Клюквин

О фильме:
Омега — волк, далёкий от высших кругов. Он мечтает познакомиться с самой популярной волчицей в стае — Альфой. И вот судьба подбрасывает ему неплохой шанс — работники заповедника отправляют их в Айдахо. Волку и волчице придётся сплотиться, для того, чтобы вернуться на свою родину.


Информация о файле:
Качество: BDRip 1080p
Продолжительность: 01:27:55
Язык (перевод):
1) русский дублированный
2) оригинальная английская дорожка
Субтитры: нет
Формат: MKV

Видео: AVC; 1920x1080 (16:9); 8898 Kbps; 23,976 fps; 0,179 bpp
Аудио 1: DTS; 1344 Kbps; CBR; 6 ch; 16 bit
Аудио 2: DTS; 1509 Kbps; CBR; 6 ch; 24 bit
Полное имя : E:Alpha.And.Omega.2010.BluRay.1080p.DTS.x264.RUS.ENG.mkv
Формат : Matroska
Размер файла : 7,35 Гбайт
Продолжительность : 1 ч. 27 м.
Общий поток : 12,0 Мбит/сек
Дата кодирования : UTC 2011-01-14 19:53:08
Программа кодирования : mkvmerge v4.4.0 ('Die Wiederkehr') сборка от Oct 31 2010 21:52:48
Библиотека кодирования : libebml v1.0.0 + libmatroska v1.0.0

Видео
Идентификатор : 1
Формат : AVC
Формат/Информация : Advanced Video Codec
Профиль формата : High@L4.1
Параметр CABAC формата : Да
Параметр ReFrames формата : 4 кадры
Идентификатор кодека : V_MPEG4/ISO/AVC
Продолжительность : 1 ч. 27 м.
Битрейт : 9113 Кбит/сек
Ширина : 1920 пикс.
Высота : 1080 пикс.
Соотношение сторон : 16:9
Частота кадров : 23,976 кадр/сек
Цветовое пространство : YUV
Подвыборка цветности : 4:2:0
Битовая глубина : 8 бит
Тип развёртки : Прогрессивная
Бит/(Пиксели*Кадры) : 0.183
Размер потока : 5,45 Гбайт (74%)
Заголовок : Alpha And Omega 2010 BluRay 1080p DTS x264-CHD
Библиотека кодирования : x264 core 107 r1766 f9f0035
Настройки программы : cabac=1 / ref=4 / deblock=1:-2:-2 / analyse=0x3:0x113 / me=umh / subme=9 / psy=1 / psy_rd=1.00:0.05 / mixed_ref=1 / me_range=32 / chroma_me=1 / trellis=2 / 8x8dct=1 / cqm=2 / deadzone=21,11 / fast_pskip=0 / chroma_qp_offset=-2 / threads=12 / sliced_threads=0 / nr=0 / decimate=1 / interlaced=0 / constrained_intra=0 / bframes=6 / b_pyramid=2 / b_adapt=2 / b_bias=0 / direct=3 / weightb=1 / open_gop=0 / weightp=2 / keyint=250 / keyint_min=23 / scenecut=40 / intra_refresh=0 / rc_lookahead=40 / rc=2pass / mbtree=0 / bitrate=9113 / ratetol=1.0 / qcomp=0.70 / qpmin=10 / qpmax=51 / qpstep=4 / cplxblur=20.0 / qblur=0.5 / vbv_maxrate=45000 / vbv_bufsize=40000 / ip_ratio=1.40 / pb_ratio=1.30 / aq=1:0.90 / nal_hrd=none
Язык : English

Аудио #1
Идентификатор : 2
Формат : DTS
Формат/Информация : Digital Theater Systems
Идентификатор кодека : A_DTS
Продолжительность : 1 ч. 27 м.
Вид битрейта : Постоянный
Битрейт : 1344 Кбит/сек
Канал(ы) : 6 канала(ов)
Расположение каналов : Front: L C R, Side: L R, LFE
Частота : 48,0 КГц
Битовая глубина : 24 бит
Метод сжатия : С потерями
Размер потока : 845 Мбайт (11%)
Заголовок : Russian DTS-HDMA core 5.1 1344 Kbps
Язык : Russian

Аудио #2
Идентификатор : 3
Формат : DTS
Формат/Информация : Digital Theater Systems
Идентификатор кодека : A_DTS
Продолжительность : 1 ч. 27 м.
Вид битрейта : Постоянный
Битрейт : 1510 Кбит/сек
Канал(ы) : 6 канала(ов)
Расположение каналов : Front: L C R, Side: L R, LFE
Частота : 48,0 КГц
Битовая глубина : 24 бит
Метод сжатия : С потерями
Размер потока : 950 Мбайт (13%)
Заголовок : DTS-CORE 1536K
Язык : English




   Похожие торренты   Торрент   Размер 
В этой теме нет новых непрочитанных сообщений. Альфа и Омега: Клыкастая братва / Alpha and Omega (2010) BDRip-AVC 1080p от FREEISLAND

2 | 5

4.37 ГБ

В этой теме нет новых непрочитанных сообщений. Альфа и Омега: Клыкастая братва / Alpha and Omega (2010) BDRip-AVC от DHT-Movies

16 | 5

2.11 ГБ

В этой теме нет новых непрочитанных сообщений. Альфа и Омега: Клыкастая братва / Alpha and Omega (2010) BDRip от HQ-ViDEO

104 | 8

1.46 ГБ

В этой теме нет новых непрочитанных сообщений. Альфа и Омега: Клыкастая братва / Alpha and Omega (2010) BDRip от HQCLUB

104 | 13

1.45 ГБ

В этой теме нет новых непрочитанных сообщений. Альфа и Омега: Клыкастая братва / Alpha and Omega (2010) BDRip от alldown | КПК

7 | 3

400.59 МБ

В этой теме нет новых непрочитанных сообщений. Альфа и Омега: Клыкастая братва / Alpha and Omega (2010) BDRip-AVC | iPad

33 | 3

1.51 ГБ

В этой теме нет новых непрочитанных сообщений. Альфа и Омега: Клыкастая братва / Alpha and Omega (2010) Blu-Ray

2 | 8

21.25 ГБ




Вы не можете начинать темы
Вы не можете отвечать на сообщения
Вы не можете редактировать свои сообщения
Вы не можете удалять свои сообщения
Вы не можете добавлять вложения

Перейти:  
Для Мосгорсуда, Роскомнадзора и рекламодателей: mosgorsud-torrent[собачка]yandex.ru
 Вход
ppkBB3cker v.2 © 2008-2014 @ PPK
[ Time : 0.054s | 14 Queries | GZIP : Off ]

Торрент трекер RUTOR.IN, Не можете зайти на rutor.org? Какой новый адрес рутор? Какое зеркало рутор? Не работает rutor.org и зеркала? Тогда наш торрент специально для вас. Rutor.in неофициальное зеркало rutor. В случае если у Вас заблокирован rutor или вдруг Вы не можете на него зайти, то Вы без труда сможете скачать бесплатно и без рекламы последние новинки кино, игр, сериалов и прочего у нас, на Rutor.in. Не нужно использовать прокси, чтобы зайти на рутор, достаточно воспользоваться нашим ресурсом. Все новые фильмы, игры, сериалы, книги и музыка за 2013 и 2014 годы через торрент бесплатно. Скачивайте фильмы в хорошем качестве, игры для пк, xbox, playstation без регистрации. У нас вы найдете новые Зарубежные сериалы и Русские сериалы 2013, 2014, 2015 годов. Оставайтесь с нами, качайте любимые фильмы, игры, сериалы, книги и музыку.