img image001 image001 image001 image001 image001 image001 image001 image001 image001 image001 image001 image001 image001 image001 image001

Planets Sun Sun Sun
Статистика раздачи
Автор: Снежана | Размер: 4.4 ГБ | Добавлен: 27 июл 2013
Раздают: 87    Качают: 19
Скачать торрент
Скачать торрент
Описание торрента

СообщениеДобавлено: 27 июл 2013 

#77

Информация о фильме
Оригинальное название: Чебурашка и крокодил Гена
Год выхода: 1969-1983
Жанр: мультфильм, короткометражка, семейный
Режиссер: Роман Качанов
В ролях: Василий Ливанов, Клара Румянова, Владимир Раутбарт, Владимир Кенигсон, Тамара Дмитриева, Владимир Ферапонтов, Ирина Мазинг, Георгий Бурков, Юрий Андреев

О фильме: Знаменитая мультипликационная экранизация произведений Эдуарда Успенского.
1. Крокодил Гена
2. Чебурашка
3. Шапокляк
4. Чебурашка идёт в школу
5. Варежка



Выпущено: СССР / Союзмультфильм
Продолжительность: 01:16:37
Озвучивание: Оригинальное [лицензия]

Файл
Формат: MKV
Качество: BDRip 1080p
Видео: MPEG-4 AVC, 1424x1072, 25.000 fps, 7000 kbps
Аудио: Russian: AC3, 448 kb/s (6 ch) / LPCM, 768 kb/s (1 ch)


Общее
Уникальный идентификатор : 173402889423348600679670767315213766963 (0x82742E8518566B5ABD6F073AF37E5133)
Полное имя : F:/HD-Мультфильмы/Чебурашка и крокодил Гена/01. Крокодил Гена.1969.BluRay.1080p.AC3.x264.mkv
Формат : Matroska
Версия формата : Version 2
Размер файла : 1,12 Гбайт
Продолжительность : 19 м.
Общий поток : 8221 Кбит/сек
Название фильма : Ripped by Koms
Дата кодирования : UTC 2011-11-11 14:24:25
Программа кодирования : mkvmerge v5.0.0 ('Die Wahre Liebe') built on Sep 25 2011 20:33:49
Библиотека кодирования : libebml v1.2.2 + libmatroska v1.3.0

Видео
Идентификатор : 1
Формат : AVC
Формат/Информация : Advanced Video Codec
Профиль формата : High@L4.1
Параметр CABAC формата : Да
Параметр ReFrames формата : 4 кадра
Идентификатор кодека : V_MPEG4/ISO/AVC
Продолжительность : 19 м.
Номинальный битрейт : 7000 Кбит/сек
Ширина : 1424 пикселя
Высота : 1072 пикселя
Соотношение сторон : 4:3
Частота кадров : 25,000 кадров/сек
Цветовое пространство : YUV
Субдискретизация насыщенности : 4:2:0
Битовая глубина : 8 бит
Тип развёртки : Прогрессивная
Бит/(Пиксели*Кадры) : 0.183
Заголовок : Крокодил Гена.1969.BluRay.1080p.AC3.x264
Библиотека кодирования : x264 core 98 r1649 20cbe10
Настройки программы : cabac=1 / ref=4 / deblock=1:-3:-3 / analyse=0x3:0x133 / me=hex / subme=6 / psy=1 / psy_rd=1.00:0.00 / mixed_ref=1 / me_range=16 / chroma_me=1 / trellis=2 / 8x8dct=1 / cqm=0 / deadzone=21,11 / fast_pskip=0 / chroma_qp_offset=-2 / threads=3 / sliced_threads=0 / nr=0 / decimate=1 / interlaced=0 / constrained_intra=0 / bframes=3 / b_pyramid=2 / b_adapt=2 / b_bias=0 / direct=1 / weightb=1 / weightp=2 / keyint=250 / keyint_min=25 / scenecut=40 / intra_refresh=0 / rc_lookahead=40 / rc=2pass / mbtree=1 / bitrate=7000 / ratetol=1.0 / qcomp=0.60 / qpmin=10 / qpmax=51 / qpstep=4 / cplxblur=20.0 / qblur=0.5 / ip_ratio=1.40 / aq=1:1.00
Язык : Russian

Аудио #1
Идентификатор : 2
Формат : AC-3
Формат/Информация : Audio Coding 3
Расширение режима : CM (complete main)
Идентификатор кодека : A_AC3
Продолжительность : 19 м.
Вид битрейта : Постоянный
Битрейт : 448 Кбит/сек
Каналы : 6 каналов
Расположение каналов : Front: L C R, Side: L R, LFE
Частота : 48,0 КГц
Битовая глубина : 16 бит
Метод сжатия : С потерями
Размер потока : 62,5 Мбайт (5%)
Заголовок : Русский AC3 5.1 Оригинальный
Язык : Russian

Аудио #2
Идентификатор : 3
Формат : PCM
Идентификатор кодека : A_PCM/INT/LIT
Продолжительность : 19 м.
Вид битрейта : Постоянный
Частота : 48,0 КГц
Битовая глубина : 16 бит
Заголовок : Русский LPCM 1.0 Оригинальный
Язык : Russian
Общее
Уникальный идентификатор : 172929439368917558994318223506605559767 (0x8218FFA14760E2D0BB035AF0066F4FD7)
Полное имя : J:/Video/Чебурашка и крокодил Гена/02. Чебурашка.1972.BluRay.1080p.AC3.x264.mkv
Формат : Matroska
Версия формата : Version 2
Размер файла : 1,09 Гбайт
Продолжительность : 19 м.
Общий поток : 8213 Кбит/сек
Название фильма : Ripped by Koms
Дата кодирования : UTC 2011-11-12 02:58:42
Программа кодирования : mkvmerge v5.0.0 ('Die Wahre Liebe') built on Sep 25 2011 20:33:49
Библиотека кодирования : libebml v1.2.2 + libmatroska v1.3.0

Видео
Идентификатор : 1
Формат : AVC
Формат/Информация : Advanced Video Codec
Профиль формата : High@L4.1
Параметр CABAC формата : Да
Параметр ReFrames формата : 4 кадра
Идентификатор кодека : V_MPEG4/ISO/AVC
Продолжительность : 19 м.
Номинальный битрейт : 7000 Кбит/сек
Ширина : 1424 пикселя
Высота : 1072 пикселя
Соотношение сторон : 4:3
Частота кадров : 25,000 кадров/сек
Цветовое пространство : YUV
Субдискретизация насыщенности : 4:2:0
Битовая глубина : 8 бит
Тип развёртки : Прогрессивная
Бит/(Пиксели*Кадры) : 0.183
Заголовок : Чебурашка.1972.BluRay.1080p.AC3.x264
Библиотека кодирования : x264 core 98 r1649 20cbe10
Настройки программы : cabac=1 / ref=4 / deblock=1:-3:-3 / analyse=0x3:0x133 / me=hex / subme=6 / psy=1 / psy_rd=1.00:0.00 / mixed_ref=1 / me_range=16 / chroma_me=1 / trellis=2 / 8x8dct=1 / cqm=0 / deadzone=21,11 / fast_pskip=0 / chroma_qp_offset=-2 / threads=3 / sliced_threads=0 / nr=0 / decimate=1 / interlaced=0 / constrained_intra=0 / bframes=3 / b_pyramid=2 / b_adapt=2 / b_bias=0 / direct=1 / weightb=1 / weightp=2 / keyint=250 / keyint_min=25 / scenecut=40 / intra_refresh=0 / rc_lookahead=40 / rc=2pass / mbtree=1 / bitrate=7000 / ratetol=1.0 / qcomp=0.60 / qpmin=10 / qpmax=51 / qpstep=4 / cplxblur=20.0 / qblur=0.5 / ip_ratio=1.40 / aq=1:1.00
Язык : Russian

Аудио #1
Идентификатор : 2
Формат : AC-3
Формат/Информация : Audio Coding 3
Расширение режима : CM (complete main)
Идентификатор кодека : A_AC3
Продолжительность : 19 м.
Вид битрейта : Постоянный
Битрейт : 448 Кбит/сек
Каналы : 6 каналов
Расположение каналов : Front: L C R, Side: L R, LFE
Частота : 48,0 КГц
Битовая глубина : 16 бит
Метод сжатия : С потерями
Размер потока : 60,9 Мбайт (5%)
Заголовок : Русский AC3 5.1 Оригинальный
Язык : Russian

Аудио #2
Идентификатор : 3
Формат : PCM
Идентификатор кодека : A_PCM/INT/LIT
Продолжительность : 19 м.
Вид битрейта : Постоянный
Частота : 48,0 КГц
Битовая глубина : 16 бит
Заголовок : Русский LPCM 1.0 Оригинальный
Язык : Russian
Общее
Уникальный идентификатор : 246140950183625596320559561171789655147 (0xB92D05CC618BB0C5867268F8BD1FAC6B)
Полное имя : J:/Video/Чебурашка и крокодил Гена/03. Шапокляк.1974.BluRay.1080p.AC3.x264.mkv
Формат : Matroska
Версия формата : Version 2
Размер файла : 1,08 Гбайт
Продолжительность : 18 м.
Общий поток : 8223 Кбит/сек
Название фильма : Ripped by Koms
Дата кодирования : UTC 2011-11-12 03:10:14
Программа кодирования : mkvmerge v5.0.0 ('Die Wahre Liebe') built on Sep 25 2011 20:33:49
Библиотека кодирования : libebml v1.2.2 + libmatroska v1.3.0

Видео
Идентификатор : 1
Формат : AVC
Формат/Информация : Advanced Video Codec
Профиль формата : High@L4.1
Параметр CABAC формата : Да
Параметр ReFrames формата : 4 кадра
Идентификатор кодека : V_MPEG4/ISO/AVC
Продолжительность : 18 м.
Номинальный битрейт : 7000 Кбит/сек
Ширина : 1424 пикселя
Высота : 1072 пикселя
Соотношение сторон : 4:3
Частота кадров : 25,000 кадров/сек
Цветовое пространство : YUV
Субдискретизация насыщенности : 4:2:0
Битовая глубина : 8 бит
Тип развёртки : Прогрессивная
Бит/(Пиксели*Кадры) : 0.183
Заголовок : Шапокляк.1974.BluRay.1080p.AC3.x264
Библиотека кодирования : x264 core 98 r1649 20cbe10
Настройки программы : cabac=1 / ref=4 / deblock=1:-3:-3 / analyse=0x3:0x133 / me=hex / subme=6 / psy=1 / psy_rd=1.00:0.00 / mixed_ref=1 / me_range=16 / chroma_me=1 / trellis=2 / 8x8dct=1 / cqm=0 / deadzone=21,11 / fast_pskip=0 / chroma_qp_offset=-2 / threads=3 / sliced_threads=0 / nr=0 / decimate=1 / interlaced=0 / constrained_intra=0 / bframes=3 / b_pyramid=2 / b_adapt=2 / b_bias=0 / direct=1 / weightb=1 / weightp=2 / keyint=250 / keyint_min=25 / scenecut=40 / intra_refresh=0 / rc_lookahead=40 / rc=2pass / mbtree=1 / bitrate=7000 / ratetol=1.0 / qcomp=0.60 / qpmin=10 / qpmax=51 / qpstep=4 / cplxblur=20.0 / qblur=0.5 / ip_ratio=1.40 / aq=1:1.00
Язык : Russian

Аудио #1
Идентификатор : 2
Формат : AC-3
Формат/Информация : Audio Coding 3
Расширение режима : CM (complete main)
Идентификатор кодека : A_AC3
Продолжительность : 18 м.
Вид битрейта : Постоянный
Битрейт : 448 Кбит/сек
Каналы : 6 каналов
Расположение каналов : Front: L C R, Side: L R, LFE
Частота : 48,0 КГц
Битовая глубина : 16 бит
Метод сжатия : С потерями
Размер потока : 60,4 Мбайт (5%)
Заголовок : Русский AC3 5.1 Оригинальный
Язык : Russian

Аудио #2
Идентификатор : 3
Формат : PCM
Идентификатор кодека : A_PCM/INT/LIT
Продолжительность : 18 м.
Вид битрейта : Постоянный
Частота : 48,0 КГц
Битовая глубина : 16 бит
Заголовок : Русский LPCM 1.0 Оригинальный
Язык : Russian
Общее
Уникальный идентификатор : 222418323145522964884094184377223714480 (0xA75435FBBFC2F072BE512175F59F96B0)
Полное имя : J:/Video/Чебурашка и крокодил Гена/04. Чебурашка идёт в школу.1983.BluRay.1080p.AC3.x264.mkv
Формат : Matroska
Версия формата : Version 2
Размер файла : 550 Мбайт
Продолжительность : 9 м. 21 с.
Общий поток : 8205 Кбит/сек
Название фильма : Ripped by Koms
Дата кодирования : UTC 2011-11-12 03:15:25
Программа кодирования : mkvmerge v5.0.0 ('Die Wahre Liebe') built on Sep 25 2011 20:33:49
Библиотека кодирования : libebml v1.2.2 + libmatroska v1.3.0

Видео
Идентификатор : 1
Формат : AVC
Формат/Информация : Advanced Video Codec
Профиль формата : High@L4.1
Параметр CABAC формата : Да
Параметр ReFrames формата : 4 кадра
Идентификатор кодека : V_MPEG4/ISO/AVC
Продолжительность : 9 м. 21 с.
Номинальный битрейт : 7000 Кбит/сек
Ширина : 1424 пикселя
Высота : 1072 пикселя
Соотношение сторон : 4:3
Частота кадров : 25,000 кадров/сек
Цветовое пространство : YUV
Субдискретизация насыщенности : 4:2:0
Битовая глубина : 8 бит
Тип развёртки : Прогрессивная
Бит/(Пиксели*Кадры) : 0.183
Заголовок : Чебурашка идёт в школу.1983.BluRay.1080p.AC3.x264
Библиотека кодирования : x264 core 98 r1649 20cbe10
Настройки программы : cabac=1 / ref=4 / deblock=1:-3:-3 / analyse=0x3:0x133 / me=hex / subme=6 / psy=1 / psy_rd=1.00:0.00 / mixed_ref=1 / me_range=16 / chroma_me=1 / trellis=2 / 8x8dct=1 / cqm=0 / deadzone=21,11 / fast_pskip=0 / chroma_qp_offset=-2 / threads=3 / sliced_threads=0 / nr=0 / decimate=1 / interlaced=0 / constrained_intra=0 / bframes=3 / b_pyramid=2 / b_adapt=2 / b_bias=0 / direct=1 / weightb=1 / weightp=2 / keyint=250 / keyint_min=25 / scenecut=40 / intra_refresh=0 / rc_lookahead=40 / rc=2pass / mbtree=1 / bitrate=7000 / ratetol=1.0 / qcomp=0.60 / qpmin=10 / qpmax=51 / qpstep=4 / cplxblur=20.0 / qblur=0.5 / ip_ratio=1.40 / aq=1:1.00
Язык : Russian

Аудио #1
Идентификатор : 2
Формат : AC-3
Формат/Информация : Audio Coding 3
Расширение режима : CM (complete main)
Идентификатор кодека : A_AC3
Продолжительность : 9 м. 21 с.
Вид битрейта : Постоянный
Битрейт : 448 Кбит/сек
Каналы : 6 каналов
Расположение каналов : Front: L C R, Side: L R, LFE
Частота : 48,0 КГц
Битовая глубина : 16 бит
Метод сжатия : С потерями
Размер потока : 30,0 Мбайт (5%)
Заголовок : Русский AC3 5.1 Оригинальный
Язык : Russian

Аудио #2
Идентификатор : 3
Формат : PCM
Идентификатор кодека : A_PCM/INT/LIT
Продолжительность : 9 м. 21 с.
Вид битрейта : Постоянный
Частота : 48,0 КГц
Битовая глубина : 16 бит
Заголовок : Русский LPCM 1.0 Оригинальный
Язык : Russian
Общее
Уникальный идентификатор : 185011703026624179453614419247982302279 (0x8B2FF5386AC1D53FB37D63FA98F9D447)
Полное имя : J:Video/Чебурашка и крокодил Гена/05. Варежка.1967.BluRay.1080p.AC3.x264.mkv
Формат : Matroska
Версия формата : Version 2
Размер файла : 581 Мбайт
Продолжительность : 9 м. 53 с.
Общий поток : 8216 Кбит/сек
Название фильма : Ripped by Koms
Дата кодирования : UTC 2011-11-12 03:17:47
Программа кодирования : mkvmerge v5.0.0 ('Die Wahre Liebe') built on Sep 25 2011 20:33:49
Библиотека кодирования : libebml v1.2.2 + libmatroska v1.3.0

Видео
Идентификатор : 1
Формат : AVC
Формат/Информация : Advanced Video Codec
Профиль формата : High@L4.1
Параметр CABAC формата : Да
Параметр ReFrames формата : 4 кадра
Идентификатор кодека : V_MPEG4/ISO/AVC
Продолжительность : 9 м. 53 с.
Номинальный битрейт : 7000 Кбит/сек
Ширина : 1424 пикселя
Высота : 1072 пикселя
Соотношение сторон : 4:3
Частота кадров : 25,000 кадров/сек
Цветовое пространство : YUV
Субдискретизация насыщенности : 4:2:0
Битовая глубина : 8 бит
Тип развёртки : Прогрессивная
Бит/(Пиксели*Кадры) : 0.183
Заголовок : Варежка.1967.BluRay.1080p.AC3.x264
Библиотека кодирования : x264 core 98 r1649 20cbe10
Настройки программы : cabac=1 / ref=4 / deblock=1:-3:-3 / analyse=0x3:0x133 / me=hex / subme=6 / psy=1 / psy_rd=1.00:0.00 / mixed_ref=1 / me_range=16 / chroma_me=1 / trellis=2 / 8x8dct=1 / cqm=0 / deadzone=21,11 / fast_pskip=0 / chroma_qp_offset=-2 / threads=3 / sliced_threads=0 / nr=0 / decimate=1 / interlaced=0 / constrained_intra=0 / bframes=3 / b_pyramid=2 / b_adapt=2 / b_bias=0 / direct=1 / weightb=1 / weightp=2 / keyint=250 / keyint_min=25 / scenecut=40 / intra_refresh=0 / rc_lookahead=40 / rc=2pass / mbtree=1 / bitrate=7000 / ratetol=1.0 / qcomp=0.60 / qpmin=10 / qpmax=51 / qpstep=4 / cplxblur=20.0 / qblur=0.5 / ip_ratio=1.40 / aq=1:1.00
Язык : Russian

Аудио #1
Идентификатор : 2
Формат : AC-3
Формат/Информация : Audio Coding 3
Расширение режима : CM (complete main)
Идентификатор кодека : A_AC3
Продолжительность : 9 м. 53 с.
Вид битрейта : Постоянный
Битрейт : 448 Кбит/сек
Каналы : 6 каналов
Расположение каналов : Front: L C R, Side: L R, LFE
Частота : 48,0 КГц
Битовая глубина : 16 бит
Метод сжатия : С потерями
Размер потока : 31,7 Мбайт (5%)
Заголовок : Русский AC3 5.1 Оригинальный
Язык : Russian

Аудио #2
Идентификатор : 3
Формат : PCM
Идентификатор кодека : A_PCM/INT/LIT
Продолжительность : 9 м. 53 с.
Вид битрейта : Постоянный
Частота : 48,0 КГц
Битовая глубина : 16 бит
Заголовок : Русский LPCM 1.0 Оригинальный
Язык : Russian



   Похожие торренты   Торрент   Размер 
В этой теме нет новых непрочитанных сообщений. Чебурашка и крокодил Гена. Сборник мультфильмов (1969-1983) BDRip от FREEISLAND

53 | 6

1.46 ГБ

В этой теме нет новых непрочитанных сообщений. Чебурашка и крокодил Гена. Сборник мультфильмов (1969-1983) BDRip 720p от FREEISLAND

71 | 7

2.92 ГБ

В этой теме нет новых непрочитанных сообщений. Чебурашка и крокодил Гена. Сборник мультфильмов (1969-1983) Blu-Ray

10 | 5

17.54 ГБ

В этой теме нет новых непрочитанных сообщений. Чебурашка и крокодил Гена. Сборник мультфильмов (1967-1983) BDRip от HQCLUB

465 | 30

1.37 ГБ

В этой теме нет новых непрочитанных сообщений. Чебурашка и крокодил Гена. Сборник мультфильмов (1967-1983) BDRip-AVC | iPad

77 | 8

1.97 ГБ

В этой теме нет новых непрочитанных сообщений. Чебурашка и крокодил Гена (1969-1983) BDRip-AVC от SuperMin

1024 | 79

928.57 МБ

В этой теме нет новых непрочитанных сообщений. Крокодил Гена и Чебурашка (1969) BDRip от MediaClub | КПК

597 | 22

299.32 МБ




Вы не можете начинать темы
Вы не можете отвечать на сообщения
Вы не можете редактировать свои сообщения
Вы не можете удалять свои сообщения
Вы не можете добавлять вложения

Перейти:  
Для Мосгорсуда, Роскомнадзора и рекламодателей: mosgorsud-torrent[собачка]yandex.ru
 Вход
ppkBB3cker v.2 © 2008-2014 @ PPK
[ Time : 0.033s | 16 Queries | GZIP : Off ]

Торрент трекер RUTOR.IN, Не можете зайти на rutor.org? Какой новый адрес рутор? Какое зеркало рутор? Не работает rutor.org и зеркала? Тогда наш торрент специально для вас. Rutor.in неофициальное зеркало rutor. В случае если у Вас заблокирован rutor или вдруг Вы не можете на него зайти, то Вы без труда сможете скачать бесплатно и без рекламы последние новинки кино, игр, сериалов и прочего у нас, на Rutor.in. Не нужно использовать прокси, чтобы зайти на рутор, достаточно воспользоваться нашим ресурсом. Все новые фильмы, игры, сериалы, книги и музыка за 2013 и 2014 годы через торрент бесплатно. Скачивайте фильмы в хорошем качестве, игры для пк, xbox, playstation без регистрации. У нас вы найдете новые Зарубежные сериалы и Русские сериалы 2013, 2014, 2015 годов. Оставайтесь с нами, качайте любимые фильмы, игры, сериалы, книги и музыку.
cron