img image001 image001 image001 image001 image001 image001 image001 image001 image001 image001 image001 image001 image001 image001 image001

Planets Sun Sun Sun
Статистика раздачи
Автор: Снежана | Размер: 4.9 ГБ | Добавлен: 27 июл 2013
Раздают: 95    Качают: 9
Скачать торрент
Скачать торрент
Описание торрента

СообщениеДобавлено: 27 июл 2013 

#77

Название: Том и Джерри
Оригинальное название: Tom and Jerry
Год выхода: 1940–1945
Выпущено: США / MGM Television, Sib-Tower 12 Productions
Жанр: мультфильм, комедия, семейный
Режиссер: Джозеф Барбера, Ханна Уильям
В ролях: Том и Джерри
Продолжительность: 20 x ~00:08:00
Озвучивание: Профессиональное (многоголосое)

О фильме: Кот Том и мышонок Джерри вызывали смех и покоряли сердца детей и взрослых всего мира на протяжении десятилетий. До сих пор эти два мультгероя-суперзвезды с неизменным успехом поражают зрителей своим мастерством перевоплощения, новыми изобретательными трюками и розыгрышами. Следите за уморительными проделками этой неуловимой парочки в первоклассной коллекции незабываемых мультяшек, и вы узнаете об изощренных ловушках, которые подстраивают друг другу веселые герои, и отправляйтесь в незабываемое приключение – лучшее в истории анимационного кино!



01. Puss Gets The Boot / За что наказали кота (1940)
02. The Midnight Snack / Поздний ужин (1941)
03. The Night Before Christmas / Ночь перед Рождеством (1941)
04. Fraidy Cat / Кот-трусишка (1942)
05. Dog Trouble / Пес - нам не товарищ (1942)
06. Puss N Toots / Гости не должны скучать (1942)
07. The Bowling Alley-Cat / Давай сыграем в кегли (1942)
08. Fine Feathered Friend / Пернатая заступница (1942)
09. Sufferin Cats! / К чему приводит жадность (1943)
10. The Lonesome Mouse / Когда мышонку стало скучно (1943)
11. Yankee Doodle Mouse / Мышонок-стратег (1943)
12. Baby Puss / Нелегко быть младенцем (1943)
13. The Zoot Cat / Кот-стиляга (1944)
14. The Million Dollar Cat / Кот-миллионер (1944)
15. The Bodyguard / Телохранитель (1944)
16. Puttin On The Dog / В собачьей шкуре (1944)
17. Mouse Trouble / Неуловимый мышонок (1944)
18. The Mouse Comes To Dinner / Романтический ужин (1945)
19. Mouse In Manhattan / Мышонок в Нью-Йорке (1945)
20. Tee For Two / Игра в гольф (1945)







General
Unique ID : 233985880878358612671353791378703006223 (0xB0080A9CC7387143BD1282C737CC3A0F)
Complete name : D:РазвлеченияВидеоTom.and.Jerry.Disk1.E01-20.1940-1945.BDRip.720p.by.BurnTom.and.Jerry.E01.1940.BDRip.720p.by.Burn.mkv
Format : Matroska
Format version : Version 2
File size : 294 MiB
Duration : 9mn 15s
Overall bit rate : 4 434 Kbps
Encoded date : UTC 2011-11-14 00:46:47
Writing application : mkvmerge v5.0.1 ('Es ist Sommer') built on Oct 9 2011 11:55:43
Writing library : libebml v1.2.2 + libmatroska v1.3.0

Video
ID : 1
Format : AVC
Format/Info : Advanced Video Codec
Format profile : High@L4.1
Format settings, CABAC : Yes
Format settings, ReFrames : 9 frames
Codec ID : V_MPEG4/ISO/AVC
Duration : 9mn 15s
Bit rate : 4 260 Kbps
Width : 992 pixels
Height : 720 pixels
Display aspect ratio : 1.378
Frame rate : 23.976 fps
Color space : YUV
Chroma subsampling : 4:2:0
Bit depth : 8 bits
Scan type : Progressive
Bits/(Pixel*Frame) : 0.249
Stream size : 275 MiB (94%)
Writing library : x264 core 116 r2074 2641b9e
Encoding settings : cabac=1 / ref=9 / deblock=0:0:0 / analyse=0x3:0 / me=umh / subme=9 / psy=1 / psy_rd=1.00:0.10 / mixed_ref=1 / me_range=32 / chroma_me=1 / trellis=2 / 8x8dct=1 / cqm=0 / deadzone=21,11 / fast_pskip=1 / chroma_qp_offset=-3 / threads=6 / sliced_threads=0 / nr=0 / decimate=1 / interlaced=0 / bluray_compat=0 / constrained_intra=0 / bframes=9 / b_pyramid=2 / b_adapt=2 / b_bias=0 / direct=3 / weightb=1 / open_gop=0 / weightp=2 / keyint=240 / keyint_min=23 / scenecut=40 / intra_refresh=0 / rc=2pass / mbtree=0 / bitrate=4260 / ratetol=1.0 / qcomp=1.00 / qpmin=0 / qpmax=69 / qpstep=4 / cplxblur=20.0 / qblur=0.5 / ip_ratio=1.40 / pb_ratio=1.30 / aq=2:1.00

Audio
ID : 2
Format : AC-3
Format/Info : Audio Coding 3
Mode extension : CM (complete main)
Codec ID : A_AC3
Duration : 9mn 15s
Bit rate mode : Constant
Bit rate : 192 Kbps
Channel(s) : 1 channel
Channel positions : Front: C
Sampling rate : 48.0 KHz
Bit depth : 16 bits
Compression mode : Lossy
Stream size : 12.7 MiB (4%)


Автор рипа: Burn
Формат: MKV
Качество: BDRip 720p
Видео: MPEG4 Video (H264), 992x720, 23.98fps, 4260 Kbps
Аудио: AC3, 1 ch, 48kHz, 192 kbps
Размер: 4.90 Гб
Скачать: Сэмпл



   Похожие торренты   Торрент   Размер 
В этой теме нет новых непрочитанных сообщений. Том и Джерри / Tom and Jerry [Диск 1] (1940-1945) BDRemux 1080p от Burn

7 | 3

17.71 ГБ

В этой теме нет новых непрочитанных сообщений. Том и Джерри / Tom and Jerry [Диск 2] (1945-1948) BDRip 720p от Burn

50 | 4

4.21 ГБ

В этой теме нет новых непрочитанных сообщений. Том и Джерри / Tom and Jerry (1940-1948) BDRip [720p] от HQ-ViDEO

60 | 17

15.82 ГБ

В этой теме нет новых непрочитанных сообщений. Том и Джерри: Коллекция / Tom & Jerry: Collection [1940-2012) BDRip 1080p

265 | 70

24.92 ГБ

В этой теме нет новых непрочитанных сообщений. Том и Джерри / Tom and Jerry [001-163 из 163] (1940 - 2005) DVDRip-AVC, BDRip-AVC от New-Team | P | лицензия

35 | 43

17.28 ГБ

В этой теме нет новых непрочитанных сообщений. Том и Джерри / Tom and Jerry [001-163 из 163] (1940 - 2005) DVDRip-AVC, BDRip-AVC от New-Team | P | лицензия

139 | 110

17.29 ГБ

В этой теме нет новых непрочитанных сообщений. Том и Джерри / Tom and Jerry [001-163 из 163] (1940-2005) DVDRip, BDRip от New-Team | P | лицензия

64 | 50

17.88 ГБ




Вы не можете начинать темы
Вы не можете отвечать на сообщения
Вы не можете редактировать свои сообщения
Вы не можете удалять свои сообщения
Вы не можете добавлять вложения

Перейти:  
Для Мосгорсуда, Роскомнадзора и рекламодателей: mosgorsud-torrent[собачка]yandex.ru
 Вход
ppkBB3cker v.2 © 2008-2014 @ PPK
[ Time : 2.435s | 14 Queries | GZIP : On ]

Торрент трекер RUTOR.IN, Не можете зайти на rutor.org? Какой новый адрес рутор? Какое зеркало рутор? Не работает rutor.org и зеркала? Тогда наш торрент специально для вас. Rutor.in неофициальное зеркало rutor. В случае если у Вас заблокирован rutor или вдруг Вы не можете на него зайти, то Вы без труда сможете скачать бесплатно и без рекламы последние новинки кино, игр, сериалов и прочего у нас, на Rutor.in. Не нужно использовать прокси, чтобы зайти на рутор, достаточно воспользоваться нашим ресурсом. Все новые фильмы, игры, сериалы, книги и музыка за 2013 и 2014 годы через торрент бесплатно. Скачивайте фильмы в хорошем качестве, игры для пк, xbox, playstation без регистрации. У нас вы найдете новые Зарубежные сериалы и Русские сериалы 2013, 2014, 2015 годов. Оставайтесь с нами, качайте любимые фильмы, игры, сериалы, книги и музыку.