img image001 image001 image001 image001 image001 image001 image001 image001 image001 image001 image001 image001 image001 image001 image001

Planets Sun Sun Sun
Статистика раздачи
Автор: Снежана | Размер: 4.21 ГБ | Добавлен: 27 июл 2013
Раздают: 50    Качают: 4
Скачать торрент
Скачать торрент
Описание торрента

СообщениеДобавлено: 27 июл 2013 

#77

Название: Том и Джерри
Оригинальное название: Tom and Jerry
Год выхода: 1945–1948
Выпущено: США / MGM Television, Sib-Tower 12 Productions
Жанр: мультфильм, комедия, семейный
Режиссер: Джозеф Барбера, Ханна Уильям
В ролях: Том и Джерри
Продолжительность: 17 x ~00:08:00
Озвучивание: Профессиональное (многоголосое)

Описание: Кот Том и мышонок Джерри вызывали смех и покоряли сердца детей и взрослых всего мира на протяжении десятилетий. До сих пор эти два мультгероя-суперзвезды с неизменным успехом поражают зрителей своим мастерством перевоплощения, новыми изобретательными трюками и розыгрышами. Следите за уморительными проделками этой неуловимой парочки в первоклассной коллекции незабываемых мультяшек, и вы узнаете об изощренных ловушках, которые подстраивают друг другу веселые герои, и отправляйтесь в незабываемое приключение – лучшее в истории анимационного кино!



01. Flirty Birdy / Птичке хочется любви / (1945)
02. Quiet Please / Соблюдайте тишину / (1945)
03. Springtime For Thomas / Пришла весна / (1946)
04. The Milky Waif / Подкидыш / (1946)
05. Trap Happy / Охота на мышей / (1946)
06. Solid Serenade / Шумная серенада / (1946)
07. Cat Fishin / Том и Джерри на рыбалке / (1947)
08. Part Time Pal / Перемирие / (1947)
09. The Cat Concerto / Концерт для кота с оркестром! / (1947)
10. Dr. Jekyll And Mr. Mouse / Доктор Джекел и мистер Мыш / (1947)
11. Salt Water Tabby / Приключения на пляже / (1947)
12. A Mouse In The House / Если в доме завелись мыши / (1947)
13. The Invisible Mouse / Мышонок-невидимка / (1947)
14. Kitty Foiled / Надо друга выручать / (1948)
15. The Truce Hurts / Мирный договор / (1948)
16. Old Rocking Chair Tom / Старый, добрый Том / (1948)
17. Professor Tom / Том-учитель / (1948)







General
Unique ID : 251906255634417867121690517944170105852 (0xBD83614D9C1159B5AEF69EC80C6ECBFC)
Complete name : D:РазвлеченияВидеоTom.and.Jerry.Disk2.E01-17.1945-1948.BDRip.720p.by.BurnTom.and.Jerry.E01.1945.BDRip.720p.by.Burn.mkv
Format : Matroska
Format version : Version 2
File size : 246 MiB
Duration : 7mn 24s
Overall bit rate : 4 644 Kbps
Encoded date : UTC 2011-11-14 22:03:02
Writing application : mkvmerge v5.0.1 ('Es ist Sommer') built on Oct 9 2011 11:55:43
Writing library : libebml v1.2.2 + libmatroska v1.3.0

Video
ID : 1
Format : AVC
Format/Info : Advanced Video Codec
Format profile : High@L4.1
Format settings, CABAC : Yes
Format settings, ReFrames : 9 frames
Codec ID : V_MPEG4/ISO/AVC
Duration : 7mn 24s
Bit rate : 4 470 Kbps
Width : 992 pixels
Height : 720 pixels
Display aspect ratio : 1.378
Frame rate : 23.976 fps
Color space : YUV
Chroma subsampling : 4:2:0
Bit depth : 8 bits
Scan type : Progressive
Bits/(Pixel*Frame) : 0.261
Stream size : 231 MiB (94%)
Writing library : x264 core 116 r2074 2641b9e
Encoding settings : cabac=1 / ref=9 / deblock=0:0:0 / analyse=0x3:0 / me=umh / subme=9 / psy=1 / psy_rd=1.00:0.10 / mixed_ref=1 / me_range=32 / chroma_me=1 / trellis=2 / 8x8dct=1 / cqm=0 / deadzone=21,11 / fast_pskip=1 / chroma_qp_offset=-3 / threads=6 / sliced_threads=0 / nr=0 / decimate=1 / interlaced=0 / bluray_compat=0 / constrained_intra=0 / bframes=9 / b_pyramid=2 / b_adapt=2 / b_bias=0 / direct=3 / weightb=1 / open_gop=0 / weightp=2 / keyint=240 / keyint_min=23 / scenecut=40 / intra_refresh=0 / rc=2pass / mbtree=0 / bitrate=4470 / ratetol=1.0 / qcomp=1.00 / qpmin=0 / qpmax=69 / qpstep=4 / cplxblur=20.0 / qblur=0.5 / ip_ratio=1.40 / pb_ratio=1.30 / aq=2:1.00

Audio
ID : 2
Format : AC-3
Format/Info : Audio Coding 3
Mode extension : CM (complete main)
Codec ID : A_AC3
Duration : 7mn 24s
Bit rate mode : Constant
Bit rate : 192 Kbps
Channel(s) : 1 channel
Channel positions : Front: C
Sampling rate : 48.0 KHz
Bit depth : 16 bits
Compression mode : Lossy
Stream size : 10.2 MiB (4%)

Автор рипа: Burn

Формат: MKV
Качество: BDRip 720p
Видео: MPEG4 Video (H264), 992x720, 23.98fps, 4470 Kbps
Аудио: Dolby AC3, 48000Hz, mono, 192 Kbps
Размер: 4.21 Гб
Скачать: Сэмпл



   Похожие торренты   Торрент   Размер 
В этой теме нет новых непрочитанных сообщений. Том и Джерри / Tom and Jerry [Диск 1] (1940-1945) BDRip 720p от Burn

95 | 9

4.9 ГБ

В этой теме нет новых непрочитанных сообщений. Том и Джерри / Tom and Jerry [Диск 1] (1940-1945) BDRemux 1080p от Burn

7 | 3

17.71 ГБ

В этой теме нет новых непрочитанных сообщений. Том и Джерри / Tom and Jerry [Disk 2] (1945-1948) BDremux

2 | 3

14.86 ГБ

В этой теме нет новых непрочитанных сообщений. Том и Джерри / Tom and Jerry (1940-1948) BDRip [720p] от HQ-ViDEO

60 | 17

15.82 ГБ

В этой теме нет новых непрочитанных сообщений. Том и Джерри: Том 1 / Tom and Jerry Golden Collection: Vol. 1 [01-37 из 37] (1940-1948) BDRip-AVC от R.G. HD-Films | 60 fps

505 | 70

8.81 ГБ

В этой теме нет новых непрочитанных сообщений. Том и Джерри. Золотая коллекция: Том первый / Tom & Jerry Golden Collection: Volume One (1940-1948) BDRip от HELLYWOOD

456 | 24

4.86 ГБ

В этой теме нет новых непрочитанных сообщений. Том и Джерри (выпуск 10) / Tom & Jerry (1945-1967) DVDRip

21 | 4

700.04 МБ




Вы не можете начинать темы
Вы не можете отвечать на сообщения
Вы не можете редактировать свои сообщения
Вы не можете удалять свои сообщения
Вы не можете добавлять вложения

Перейти:  
Для Мосгорсуда, Роскомнадзора и рекламодателей: mosgorsud-torrent[собачка]yandex.ru
 Вход
ppkBB3cker v.2 © 2008-2014 @ PPK
[ Time : 0.027s | 15 Queries | GZIP : On ]

Торрент трекер RUTOR.IN, Не можете зайти на rutor.org? Какой новый адрес рутор? Какое зеркало рутор? Не работает rutor.org и зеркала? Тогда наш торрент специально для вас. Rutor.in неофициальное зеркало rutor. В случае если у Вас заблокирован rutor или вдруг Вы не можете на него зайти, то Вы без труда сможете скачать бесплатно и без рекламы последние новинки кино, игр, сериалов и прочего у нас, на Rutor.in. Не нужно использовать прокси, чтобы зайти на рутор, достаточно воспользоваться нашим ресурсом. Все новые фильмы, игры, сериалы, книги и музыка за 2013 и 2014 годы через торрент бесплатно. Скачивайте фильмы в хорошем качестве, игры для пк, xbox, playstation без регистрации. У нас вы найдете новые Зарубежные сериалы и Русские сериалы 2013, 2014, 2015 годов. Оставайтесь с нами, качайте любимые фильмы, игры, сериалы, книги и музыку.