img image001 image001 image001 image001 image001 image001 image001 image001 image001 image001 image001 image001 image001 image001 image001

Planets Sun Sun Sun
Статистика раздачи
Автор: Снежана | Размер: 401.29 МБ | Добавлен: 27 июл 2013
Раздают: 0    Качают: 2
Скачать торрент
Скачать торрент
Описание торрента

СообщениеДобавлено: 27 июл 2013 



Информация о фильме
Название: Симпсоны
Оригинальное название: The Simpsons
Год выхода: 2011
Жанр: Комедия, Мультипликация
Режиссер: Марк Керклэнд, Сьюзи Диттер, Чак Шитз
В ролях: Дэн Кастелланета, Джули Кавнер, Нэнси Картрайт, Ярдли Смит, Хэнк Азария, Гарри Ширер.

Описание: Симпсоны живут в вымышленном городе Спрингфилд, со своим обществом и историей. Гомер - отец семейства, который дает плохие советы и работает инспектором безопасности на атомной электростанции; Мардж - любящая мать и жена, старается сохранить спокойствие в семье; Барт - 10 летний хулиган; Лиза - философский 8-летний ребенок; и Мэгги - младенец, который общается посредством соски. PS: И теперь все это Чудо в профессиональном переводе.



Страна: США
Продолжительность: 00:23:00
Перевод: Профессиональный (многоголосый, закадровый) VO-Production

Семпл

Файл
Качество: WEB-DLRip
Видео: 720x400, 23.976 fps, 1172 kbps, 0.16 bit/pixel
Аудио: 48 kHz, 2 ch, 192 kbps - русская
Субтитры: Нет


General
Complete name : D:The Simpsons - Season 23 (VO-Production)The.Simpsons.S23E01.WEB-DLRip.VO-Production.avi
Format : AVI
Format/Info : Audio Video Interleave
File size : 208 MiB
Duration : 22mn 19s
Overall bit rate : 1 302 Kbps
Writing application : VirtualDubMod 1.5.10.2 (build 2540/release)
Writing library : VirtualDubMod build 2540/release

Video
ID : 0
Format : MPEG-4 Visual
Format profile : Advanced Simple@L5
Format settings, BVOP : 2
Format settings, QPel : No
Format settings, GMC : No warppoints
Format settings, Matrix : Default (H.263)
Muxing mode : Packed bitstream
Codec ID : XVID
Codec ID/Hint : XviD
Duration : 22mn 19s
Bit rate : 1 101 Kbps
Width : 720 pixels
Height : 400 pixels
Display aspect ratio : 16:9
Frame rate : 23.976 fps
Color space : YUV
Chroma subsampling : 4:2:0
Bit depth : 8 bits
Scan type : Progressive
Compression mode : Lossy
Bits/(Pixel*Frame) : 0.159
Stream size : 176 MiB (85%)
Writing library : XviD 1.2.0.dev47 (UTC 2006-11-01)

Audio
ID : 1
Format : AC-3
Format/Info : Audio Coding 3
Mode extension : CM (complete main)
Codec ID : 2000
Duration : 22mn 19s
Bit rate mode : Constant
Bit rate : 192 Kbps
Channel(s) : 2 channels
Channel positions : Front: L R
Sampling rate : 48.0 KHz
Bit depth : 16 bits
Compression mode : Lossy
Stream size : 30.7 MiB (15%)
Alignment : Split accross interleaves
Interleave, duration : 42 ms (1.00 video frame)
Interleave, preload duration : 500 ms
Внимание! Раздача ведётся путём добавления новых серий; при каждом добавлении создётся новый торрент. Чтобы начать докачку новой серии, пользователям необходимо сделать следующее:
(1) остановить скачивание,
(2) удалить старый торрент у себя из клиента (старые серии удалять не надо),
(3) скачать новый торрент и запустить его у себя в клиенте вместо старого, при этом указать клиенту путь в старую папку куда и должно происходить скачивание новых серий.
Ваш клиент при этом должен произвести хеширование (проверку) старой папки (если не производит сам - помогите ему сделать это), и будет докачивать только те серии которых у вас ещё нет. Старые серии при этом не удаляются, а продолжают раздаваться!
Eсли вы уже удалили старые серии, то предотвратить повторную закачку старых серий можно, отжав галочку в соответсвующих местах при запуске нового торрента. По возможности, желательно не удалять старые серии как можно дольше чтобы релизёр не столько продолжал раздавать старые серии, а смог сконцентрироваться на новых.
2301 - Сокол и чёртов человек / The Falcon and the D'ohman

Сюжет: На Спрингфилдскую АЭС берут нового охранника. Гомер пытается подружиться с этим загадочным человеком. В то же время Мардж мечтает появится в кулинарном шоу.
2302 - Барт приобщился к Рузвельту / Bart Stops to Smell the Roosevelts

Сюжет: После одной из очередных шалостей Барта директор Скиннер и управляющий Чалмерс спорят о его воспитании. Чалмерс принимает вызов и начинает учить Барта.




   Похожие торренты   Торрент   Размер 
В этой теме нет новых непрочитанных сообщений. Симпсоны / The Simpsons [23x01-03] (2011) HDTVRip от Jetvis Studio

0 | 2

548.96 МБ

В этой теме нет новых непрочитанных сообщений. Симпсоны / The Simpsons [23x01-10] (2011) HDTVRip | Jetvis Studio

1 | 2

1.78 ГБ

В этой теме нет новых непрочитанных сообщений. Симпсоны / The Simpsons [S22] (2011) WEB-DLRip | VO-Production

45 | 13

4.12 ГБ

В этой теме нет новых непрочитанных сообщений. Симпсоны / The Simpsons [22х01-19 из 22] (2011) WEB-DLRip-AVC | VO-Production

3 | 6

3.19 ГБ

В этой теме нет новых непрочитанных сообщений. Симпсоны / The Simpsons [22х01-18 из 22] (2011) WEB-DLRip-AVC | VO-Production

0 | 2

3.04 ГБ

В этой теме нет новых непрочитанных сообщений. Симпсоны / The Simpsons [22х01-17 из 22] (2011) WEB-DLRip-AVC | VO-Production

0 | 6

2.89 ГБ

В этой теме нет новых непрочитанных сообщений. Симпсоны / The Simpsons [28x01-10 из 22] (2016) WEB-DLRip | VO-production

2 | 4

2.46 ГБ




Вы не можете начинать темы
Вы не можете отвечать на сообщения
Вы не можете редактировать свои сообщения
Вы не можете удалять свои сообщения
Вы не можете добавлять вложения

Перейти:  
Для Мосгорсуда, Роскомнадзора и рекламодателей: mosgorsud-torrent[собачка]yandex.ru
 Вход
ppkBB3cker v.2 © 2008-2014 @ PPK
[ Time : 0.042s | 16 Queries | GZIP : Off ]

cron