img image001 image001 image001 image001 image001 image001 image001 image001 image001 image001 image001 image001 image001 image001 image001

Planets Sun Sun Sun
Статистика раздачи
Автор: Снежана | Размер: 805.64 МБ | Добавлен: 27 июл 2013
Раздают: 1    Качают: 1
Скачать торрент
Скачать торрент
Описание торрента

СообщениеДобавлено: 27 июл 2013 



Информация о фильме
Название: Американский папа!
Оригинальное название: American DAD!
Год выхода: 2011
Жанр: Мультсериал, комедия, пародия, мюзикл
Режиссер: Сет Макфарлейн
В ролях: Сет МакФарлейн, Уэнди Шаал, Ди Брэдли Бейкер, Скотт Граймз, Рэйчел МакФарлейн и другие.

Описание: «Американский папаша» (англ. American Dad!) — это американский телевизионный сериал производства студии «Андердог» (Underdog Productions) и «Фаззи Дор» (Fuzzy Door Productions) по заказу 20th Century Fox. Он был придуман и разработан, в большей степени, Сетом Макфарлейном, создателем сериала «Гриффины». «Американский папаша» является ярким представителем сатирического мультипликационного сериала, о жизни американской семьи. Сюжет разворачивается вокруг семьи Смитов, которая состоит из четырёх человек, одного пришельца и говорящей «Золотой рыбки». Сериал постоянно концентрируется на различных особенностях поп-культуры, политики, религии и любых других тематиках, часто фигурирующих в обществе. В сериале часто звучат «колкости» о современном обществе и тонкий юмор, показывающий особенности Американского общества.

Страна: США
Продолжительность: 00:23:00
Перевод: Профессиональный (многоголосый, закадровый) FiLiZa Studio

Семпл

Файл
Качество: WEB-DLRip
Видео: XviD 624x352, 23.976 fps, 963 Kbps
Аудио: MP3 48000 Hz, 192 Kbps - русская
Аудио 2: MP3 48000 Hz, 192 Kbps - оригинал
Субтитры: Нет


American.Dad.7x01.Hot.Water.FiliZa.ru.KiNaTaN.avi
Format : AVI
Format/Info : Audio Video Interleave
File size : 218 MiB
Duration : 21mn 52s
Overall bit rate : 1 392 Kbps
Writing application : VirtualDubModRus 1.5.10.2 (build 2542/release)
Writing library : VirtualDubMod build 2542/release

Video
ID : 0
Format : MPEG-4 Visual
Format profile : Advanced Simple@L5
Format settings, BVOP : 3
Format settings, QPel : No
Format settings, GMC : No warppoints
Format settings, Matrix : Default (H.263)
Codec ID : XVID
Codec ID/Hint : XviD
Duration : 21mn 52s
Bit rate : 994 Kbps
Width : 624 pixels
Height : 352 pixels
Display aspect ratio : 16:9
Frame rate : 23.976 fps
Color space : YUV
Chroma subsampling : 4:2:0
Bit depth : 8 bits
Scan type : Progressive
Compression mode : Lossy
Bits/(Pixel*Frame) : 0.189
Stream size : 156 MiB (71%)
Writing library : XviD 1.2.1 (UTC 2008-12-04)

Audio #1
ID : 1
Format : MPEG Audio
Format version : Version 1
Format profile : Layer 3
Mode : Joint stereo
Mode extension : MS Stereo
Codec ID : 55
Codec ID/Hint : MP3
Duration : 21mn 52s
Bit rate mode : Constant
Bit rate : 192 Kbps
Channel(s) : 2 channels
Sampling rate : 48.0 KHz
Compression mode : Lossy
Stream size : 30.0 MiB (14%)
Alignment : Aligned on interleaves
Interleave, duration : 42 ms (1.00 video frame)
Interleave, preload duration : 504 ms
Writing library : LAME3.98 (beta)ЄЄЄЄЄ

Audio #2
ID : 2
Format : MPEG Audio
Format version : Version 1
Format profile : Layer 3
Mode : Joint stereo
Mode extension : MS Stereo
Codec ID : 55
Codec ID/Hint : MP3
Duration : 21mn 52s
Bit rate mode : Constant
Bit rate : 192 Kbps
Channel(s) : 2 channels
Sampling rate : 48.0 KHz
Compression mode : Lossy
Stream size : 30.0 MiB (14%)
Alignment : Aligned on interleaves
Interleave, duration : 42 ms (1.00 video frame)
Interleave, preload duration : 504 ms
Writing library : LAMEЄЄЄQ•*(ЧЛ
Внимание! Раздача ведётся путём добавления новых серий; при каждом добавлении создётся новый торрент. Чтобы начать докачку новой серии, пользователям необходимо сделать следующее:
(1) остановить скачивание,
(2) удалить старый торрент у себя из клиента (старые серии удалять не надо),
(3) скачать новый торрент и запустить его у себя в клиенте вместо старого, при этом указать клиенту путь в старую папку куда и должно происходить скачивание новых серий.
Ваш клиент при этом должен произвести хеширование (проверку) старой папки (если не производит сам - помогите ему сделать это), и будет докачивать только те серии которых у вас ещё нет. Старые серии при этом не удаляются, а продолжают раздаваться!
Eсли вы уже удалили старые серии, то предотвратить повторную закачку старых серий можно, отжав галочку в соответсвующих местах при запуске нового торрента. По возможности, желательно не удалять старые серии как можно дольше чтобы релизёр не столько продолжал раздавать старые серии, а смог сконцентрироваться на новых.
1. Hot Water
2. Hurricane!
3. A Ward Show
4. The Worst Stan




   Похожие торренты   Торрент   Размер 
В этой теме нет новых непрочитанных сообщений. Американский папа / American Dad! [07x01] (2011) WEB-DLRip | FiliZa Studio

0 | 2

217.81 МБ

В этой теме нет новых непрочитанных сообщений. Американский папа! / American DAD! [07x01-12] (2011-2012) WEB-DLRip | FiLiZa Studio

52 | 4

2.45 ГБ

В этой теме нет новых непрочитанных сообщений. Американский папа! / American DAD! [S6] (2010) WEB-DLRip | FiLiZa Studio

14 | 2

3.7 ГБ

В этой теме нет новых непрочитанных сообщений. Американский папа / American Dad! [07x02] (2011) WEB-DLRip | FiliZa Studio

0 | 2

195.53 МБ

В этой теме нет новых непрочитанных сообщений. Американский папа / American Dad! [08х01-02 из ?] (2012) WEB-DLRip | FiliZa Studio

0 | 2

587.24 МБ

В этой теме нет новых непрочитанных сообщений. Американский папаша / American Dad! [12х01-04 из 15] (2016) WEB-DLRip | FiliZa Studio

94 | 156

2.04 ГБ

В этой теме нет новых непрочитанных сообщений. Американский папаша / American Dad! [12х01-04 из 15] (2016) WEB-DLRip | FiliZa Studio

90 | 58

1.63 ГБ




Вы не можете начинать темы
Вы не можете отвечать на сообщения
Вы не можете редактировать свои сообщения
Вы не можете удалять свои сообщения
Вы не можете добавлять вложения

Перейти:  
Для Мосгорсуда, Роскомнадзора и рекламодателей: mosgorsud-torrent[собачка]yandex.ru
 Вход
ppkBB3cker v.2 © 2008-2014 @ PPK
[ Time : 0.023s | 14 Queries | GZIP : Off ]

Торрент трекер RUTOR.IN, Не можете зайти на rutor.org? Какой новый адрес рутор? Какое зеркало рутор? Не работает rutor.org и зеркала? Тогда наш торрент специально для вас. Rutor.in неофициальное зеркало rutor. В случае если у Вас заблокирован rutor или вдруг Вы не можете на него зайти, то Вы без труда сможете скачать бесплатно и без рекламы последние новинки кино, игр, сериалов и прочего у нас, на Rutor.in. Не нужно использовать прокси, чтобы зайти на рутор, достаточно воспользоваться нашим ресурсом. Все новые фильмы, игры, сериалы, книги и музыка за 2013 и 2014 годы через торрент бесплатно. Скачивайте фильмы в хорошем качестве, игры для пк, xbox, playstation без регистрации. У нас вы найдете новые Зарубежные сериалы и Русские сериалы 2013, 2014, 2015 годов. Оставайтесь с нами, качайте любимые фильмы, игры, сериалы, книги и музыку.