img image001 image001 image001 image001 image001 image001 image001 image001 image001 image001 image001 image001 image001 image001 image001

Planets Sun Sun Sun
Статистика раздачи
Автор: Снежана | Размер: 4.37 ГБ | Добавлен: 27 июл 2013
Раздают: 11    Качают: 3
Скачать торрент
Скачать торрент
Описание торрента

СообщениеДобавлено: 27 июл 2013 

#77

Информация о фильме
Название: Приключения Алёнушки и Ерёмы
Год выхода: 2008
Жанр: мультфильм, семейный
Режиссер: Георгий Гитис
В ролях: Антон Макарский, Наталья Щукина, Рената Литвинова, Сергей Чонишвили, Инна Гомес, Евгений Воскресенский, Александр Пожаров, Вячеслав Гришечкин, Александр Ревва, Александр Наумов...

О фильме:
К тётке Ефросинье, помогающей царю Дормидонту по хозяйству, приезжает красавица Алёнушка, по дороге получившая корзинку с волшебными яблоками от таинственной незнакомки, и с первого взгляда влюбляется в талантливого музыканта Ерёму, живущего по соседству. И Ерёма полюбил Алёнушку, но вследствие неразберихи с волшебными яблоками и по вине Алёнушки заколдованный Ерёма влюбляется в царевну Всеславу, дочь царя Дормидонта. Для того чтобы пожениться, Алёнушке и Ерёме предстоит преодолеть множество препятствий, им будут мешать и Воевода, и Рыцарь, и посланые Шахом Звездочёт с Циклопом.



Страна: Россия
Продолжительность: 01:36:19
Перевод: Оригинал

Файл
Кодек: H264
Качество: BDRip 1080p
Видео: 1920x1080, 6107 Kbps, 23.976 fps
Звук: 48 kHz, AC3, 6c, 384 kbps
Субтитры: Русские

Семпл



Общее
Формат : Matroska
Версия формата : Version 2
Размер файла : 4,37 Гбайт
Продолжительность : 1 ч. 36 м.
Общий поток : 6492 Кбит/сек
Название фильма : Приключения Алёнушки и Ерёмы (2008) BDRip 1080p от Dimok
Дата кодирования : UTC 2011-11-19 04:48:35
Программа кодирования : mkvmerge v5.0.1 ('Es ist Sommer') built on Oct 9 2011 11:55:43
Библиотека кодирования : libebml v1.2.2 + libmatroska v1.3.0

Видео
Идентификатор : 1
Формат : AVC
Формат/Информация : Advanced Video Codec
Профиль формата : High@L4.1
Параметр CABAC формата : Да
Параметр ReFrames формата : 4 кадра
Идентификатор кодека : V_MPEG4/ISO/AVC
Продолжительность : 1 ч. 36 м.
Битрейт : 6107 Кбит/сек
Ширина : 1920 пикселей
Высота : 1080 пикселей
Соотношение сторон : 16:9
Частота кадров : 23,976 кадра/сек
Цветовое пространство : YUV
Субдискретизация насыщенности : 4:2:0
Битовая глубина : 8 бит
Тип развёртки : Прогрессивная
Бит/(Пиксели*Кадры) : 0.123
Размер потока : 4,02 Гбайт (92%)
Библиотека кодирования : x264 core 92 r1510 33d382a
Настройки программы : cabac=1 / ref=4 / deblock=1:0:0 / analyse=0x3:0x133 / me=umh / subme=10 / psy=1 / psy_rd=1.00:0.10 / mixed_ref=1 / me_range=32 / chroma_me=1 / trellis=2 / 8x8dct=1 / cqm=0 / deadzone=21,11 / fast_pskip=0 / chroma_qp_offset=-3 / threads=6 / sliced_threads=0 / nr=0 / decimate=1 / interlaced=0 / constrained_intra=0 / bframes=6 / b_pyramid=2 / b_adapt=2 / b_bias=0 / direct=3 / wpredb=1 / wpredp=2 / keyint=205 / keyint_min=25 / scenecut=40 / intra_refresh=0 / rc_lookahead=50 / rc=2pass / mbtree=1 / bitrate=6107 / ratetol=1.0 / qcomp=0.60 / qpmin=11 / qpmax=51 / qpstep=4 / cplxblur=20.0 / qblur=0.5 / ip_ratio=1.40 / aq=1:1.00
Язык : Russian

Аудио
Идентификатор : 2
Формат : AC-3
Формат/Информация : Audio Coding 3
Расширение режима : CM (complete main)
Идентификатор кодека : A_AC3
Продолжительность : 1 ч. 36 м.
Вид битрейта : Постоянный
Битрейт : 384 Кбит/сек
Каналы : 6 каналов
Расположение каналов : Front: L C R, Side: L R, LFE
Частота : 48,0 КГц
Битовая глубина : 16 бит
Метод сжатия : С потерями
Размер потока : 265 Мбайт (6%)
Заголовок : Оригинал
Язык : Russian

Текст
Идентификатор : 3
Формат : UTF-8
Идентификатор кодека : S_TEXT/UTF8
Идентификатор кодека/Информация : UTF-8 Plain Text
Язык : Russian



   Похожие торренты   Торрент   Размер 
В этой теме нет новых непрочитанных сообщений. Приключения Алёнушки и Ерёмы (2008) BDRip 1080p

23 | 3

7.42 ГБ

В этой теме нет новых непрочитанных сообщений. Приключения Алёнушки и Ерёмы (2008) BDRip 720p

2 | 1

3 ГБ

В этой теме нет новых непрочитанных сообщений. Приключения Алёнушки и Ерёмы (2008) BDRip от HQCLUB

45 | 5

1.45 ГБ

В этой теме нет новых непрочитанных сообщений. Приключения Алёнушки и Ерёмы (2008) BDRip от HELLYWOOD

92 | 7

1.46 ГБ

В этой теме нет новых непрочитанных сообщений. Приключения Алёнушки и Ерёмы (2008) Blu-Ray

0 | 1

22.36 ГБ

В этой теме нет новых непрочитанных сообщений. Приключения Аленушки и Еремы (2008) HDRip

14 | 7

746.91 МБ

В этой теме нет новых непрочитанных сообщений. Приключения Алёнушки и Ерёмы (2008) HDRip-AVC от potroks

6 | 2

1.45 ГБ




Вы не можете начинать темы
Вы не можете отвечать на сообщения
Вы не можете редактировать свои сообщения
Вы не можете удалять свои сообщения
Вы не можете добавлять вложения

Перейти:  
Для Мосгорсуда, Роскомнадзора и рекламодателей: mosgorsud-torrent[собачка]yandex.ru
 Вход
ppkBB3cker v.2 © 2008-2014 @ PPK
[ Time : 1.482s | 14 Queries | GZIP : Off ]

Торрент трекер RUTOR.IN, Не можете зайти на rutor.org? Какой новый адрес рутор? Какое зеркало рутор? Не работает rutor.org и зеркала? Тогда наш торрент специально для вас. Rutor.in неофициальное зеркало rutor. В случае если у Вас заблокирован rutor или вдруг Вы не можете на него зайти, то Вы без труда сможете скачать бесплатно и без рекламы последние новинки кино, игр, сериалов и прочего у нас, на Rutor.in. Не нужно использовать прокси, чтобы зайти на рутор, достаточно воспользоваться нашим ресурсом. Все новые фильмы, игры, сериалы, книги и музыка за 2013 и 2014 годы через торрент бесплатно. Скачивайте фильмы в хорошем качестве, игры для пк, xbox, playstation без регистрации. У нас вы найдете новые Зарубежные сериалы и Русские сериалы 2013, 2014, 2015 годов. Оставайтесь с нами, качайте любимые фильмы, игры, сериалы, книги и музыку.