img image001 image001 image001 image001 image001 image001 image001 image001 image001 image001 image001 image001 image001 image001 image001

Planets Sun Sun Sun
Статистика раздачи
Автор: Снежана | Размер: 4.37 ГБ | Добавлен: 27 июл 2013
Раздают: 218    Качают: 17
Скачать торрент
Скачать торрент
Описание торрента

СообщениеДобавлено: 27 июл 2013 

#77

Информация о фильме
Название: История игрушек
Оригинальное название: Toy Story
Год выхода: 1995
Жанр: мультфильм, фэнтези, комедия, приключения, семейный
Режиссер: Джон Лассетер
В ролях: Том Хэнкс, Тим Аллен, Дон Риклз, Джим Варни, Уоллес Шоун, Джон Ратценбергер, Энни Поттс, Джон Моррис, Эрик Фон Деттен, Лори Меткаф

О фильме: Каждый ребенок верит, что когда он оставляет свои игрушки одни, они начинают заниматься своими делами. Этот мультипликационный фильм позволяет убедиться им в своей правоте.

Основная идея фильма — каждая игрушка боится надоесть, стать забытой, замененной другой, так как весь смысл их существования — доставлять счастье своим хозяевам.


Выпущено: Walt Disney Pictures
Продолжительность: 01:21:05
Перевод: Дублированный [Базз Лайтер]

Файл
Кодек: x264
Качество: BDRip (источник: Blu-ray Disc)
Видео: 1920x1080 (16:9), 23.976 fps, 7269 kbps
Звук: 48 kHz, AC-3, 6 ch, 448 kbps
Субтитры: Русские, Английские
Скачать: сэмпл

Скриншоты

Общее
Уникальный идентификатор : 180590658913866944245121731937850307202 (0x87DC7EEAA4DF58AFA0F1DF981C173282)
Полное имя : Toy.Story.1995.BDRip.1080p.Rus.mkv
Формат : Matroska
Версия формата : Version 2
Размер файла : 4,37 Гбайт
Продолжительность : 1 ч. 21 м.
Общий поток : 7716 Кбит/сек
Дата кодирования : UTC 2011-11-19 17:55:21
Программа кодирования : mkvmerge v4.0.0 ('The Stars were mine') сборка от Jun 6 2010 16:18:42
Библиотека кодирования : libebml v1.0.0 + libmatroska v1.0.0

Видео
Идентификатор : 1
Формат : AVC
Формат/Информация : Advanced Video Codec
Профиль формата : High@L4.1
Параметр CABAC формата : Да
Параметр ReFrames формата : 4 кадра
Идентификатор кодека : V_MPEG4/ISO/AVC
Продолжительность : 1 ч. 21 м.
Битрейт : 7269 Кбит/сек
Ширина : 1920 пикселей
Высота : 1080 пикселей
Соотношение сторон : 16:9
Частота кадров : 23,976 кадра/сек
Цветовое пространство : YUV
Субдискретизация насыщенности : 4:2:0
Битовая глубина : 8 бит
Тип развёртки : Прогрессивная
Бит/(Пиксели*Кадры) : 0.146
Размер потока : 4,03 Гбайт (92%)
Библиотека кодирования : x264 core 119 r2106 07efeb4
Настройки программы : cabac=1 / ref=4 / deblock=1:0:0 / analyse=0x3:0x133 / me=umh / subme=10 / psy=1 / psy_rd=1.00:0.00 / mixed_ref=1 / me_range=32 / chroma_me=1 / trellis=2 / 8x8dct=1 / cqm=0 / deadzone=21,11 / fast_pskip=0 / chroma_qp_offset=-2 / threads=12 / sliced_threads=0 / nr=0 / decimate=1 / interlaced=0 / bluray_compat=0 / constrained_intra=0 / bframes=3 / b_pyramid=2 / b_adapt=2 / b_bias=0 / direct=3 / weightb=1 / open_gop=0 / weightp=2 / keyint=240 / keyint_min=24 / scenecut=40 / intra_refresh=0 / rc_lookahead=60 / rc=2pass / mbtree=1 / bitrate=7269 / ratetol=1.0 / qcomp=0.60 / qpmin=0 / qpmax=69 / qpstep=4 / cplxblur=20.0 / qblur=0.5 / ip_ratio=1.40 / aq=1:1.00
Язык : English

Аудио
Идентификатор : 2
Формат : AC-3
Формат/Информация : Audio Coding 3
Расширение режима : CM (complete main)
Идентификатор кодека : A_AC3
Продолжительность : 1 ч. 21 м.
Вид битрейта : Постоянный
Битрейт : 448 Кбит/сек
Каналы : 6 каналов
Расположение каналов : Front: L C R, Side: L R, LFE
Частота : 48,0 КГц
Битовая глубина : 16 бит
Метод сжатия : С потерями
Размер потока : 260 Мбайт (6%)
Язык : Russian

Текст #1
Идентификатор : 3
Формат : UTF-8
Идентификатор кодека : S_TEXT/UTF8
Идентификатор кодека/Информация : UTF-8 Plain Text
Язык : Russian

Текст #2
Идентификатор : 4
Формат : UTF-8
Идентификатор кодека : S_TEXT/UTF8
Идентификатор кодека/Информация : UTF-8 Plain Text
Язык : English

Меню
00:00:00.000 : :Chapter 01
00:02:02.247 : :Chapter 02
00:04:00.365 : :Chapter 03
00:06:34.018 : :Chapter 04
00:09:19.267 : :Chapter 05
00:14:16.981 : :Chapter 06
00:20:10.250 : :Chapter 07
00:22:17.210 : :Chapter 08
00:24:24.963 : :Chapter 09
00:26:01.226 : :Chapter 10
00:29:28.933 : :Chapter 11
00:30:09.349 : :Chapter 12
00:35:09.857 : :Chapter 13
00:39:25.404 : :Chapter 14
00:42:59.535 : :Chapter 15
00:43:43.328 : :Chapter 16
00:46:25.699 : :Chapter 17
00:47:20.170 : :Chapter 18
00:49:08.111 : :Chapter 19
00:51:08.523 : :Chapter 20
00:53:49.934 : :Chapter 21
00:56:23.713 : :Chapter 22
00:57:14.764 : :Chapter 23
01:01:41.072 : :Chapter 24
01:02:50.099 : :Chapter 25
01:04:49.093 : :Chapter 26
01:07:58.657 : :Chapter 27
01:13:10.302 : :Chapter 28
01:15:40.077 : :Chapter 29
01:17:08.373 : :Chapter 30
01:21:04.651 : :Chapter 31



   Похожие торренты   Торрент   Размер 
В этой теме нет новых непрочитанных сообщений. История игрушек / Toy Story (1995) 1080p BDRip

37 | 3

7.54 ГБ

В этой теме нет новых непрочитанных сообщений. История игрушек / Toy Story (1995) BDrip 1080p | 3D-Video

3 | 5

8.2 ГБ

В этой теме нет новых непрочитанных сообщений. История игрушек [Трилогия] / Toy Story [Trilogy] (1995; 1999; 2010) BDRip 1080p от Ash61 | 3D-Video | halfOU

26 | 8

23.53 ГБ

В этой теме нет новых непрочитанных сообщений. История игрушек / Toy Story (1995) BDRip-AVC от RP4 CHG

20 | 2

701.68 МБ

В этой теме нет новых непрочитанных сообщений. История игрушек / Toy Story (1995) BDRip-AVC

125 | 5

744.64 МБ

В этой теме нет новых непрочитанных сообщений. История игрушек / Toy Story (1995) BDRip-AVC | iPhone

49 | 7

1.14 ГБ

В этой теме нет новых непрочитанных сообщений. История игрушек / Toy Story (1995) BDRip by VIDEODB

4 | 2

2.33 ГБ




Вы не можете начинать темы
Вы не можете отвечать на сообщения
Вы не можете редактировать свои сообщения
Вы не можете удалять свои сообщения
Вы не можете добавлять вложения

Перейти:  
Для Мосгорсуда, Роскомнадзора и рекламодателей: mosgorsud-torrent[собачка]yandex.ru
 Вход
ppkBB3cker v.2 © 2008-2014 @ PPK
[ Time : 0.054s | 15 Queries | GZIP : Off ]

Торрент трекер RUTOR.IN, Не можете зайти на rutor.org? Какой новый адрес рутор? Какое зеркало рутор? Не работает rutor.org и зеркала? Тогда наш торрент специально для вас. Rutor.in неофициальное зеркало rutor. В случае если у Вас заблокирован rutor или вдруг Вы не можете на него зайти, то Вы без труда сможете скачать бесплатно и без рекламы последние новинки кино, игр, сериалов и прочего у нас, на Rutor.in. Не нужно использовать прокси, чтобы зайти на рутор, достаточно воспользоваться нашим ресурсом. Все новые фильмы, игры, сериалы, книги и музыка за 2013 и 2014 годы через торрент бесплатно. Скачивайте фильмы в хорошем качестве, игры для пк, xbox, playstation без регистрации. У нас вы найдете новые Зарубежные сериалы и Русские сериалы 2013, 2014, 2015 годов. Оставайтесь с нами, качайте любимые фильмы, игры, сериалы, книги и музыку.
cron