img image001 image001 image001 image001 image001 image001 image001 image001 image001 image001 image001 image001 image001 image001 image001

Planets Sun Sun Sun
Статистика раздачи
Автор: Снежана | Размер: 4.37 ГБ | Добавлен: 27 июл 2013
Раздают: 186    Качают: 9
Скачать торрент
Скачать торрент
Описание торрента

СообщениеДобавлено: 27 июл 2013 

#77

Информация о фильме
Название: История игрушек 2
Оригинальное название: Toy Story 2
Год выхода: 1999
Жанр: мультфильм, фэнтези, комедия, приключения, семейный
Режиссер: Джон Лассетер, Эш Браннон, Ли Анкрич
В ролях: Том Хэнкс, Тим Аллен, Джоан Кьюсак, Келси Грэммер, Дон Риклз, Джим Варни, Уоллес Шоун, Джон Ратценбергер, Энни Поттс, Уэйн Найт

О фильме: Ковбой Вуди и другие игрушки мальчика по имени Энди продолжают жить, радуясь каждому дню. Но неожиданно все меняется, когда Вуди похищает коварный коллекционер. Оказывается, что Вуди — очень ценная игрушка из коллекции, за которую японский музей игрушек готов заплатить огромную сумму. В доме коллекционера он находит своих родственников. В это время игрушки во главе с Баззом Лайтером отправляются спасать Вуди.

Вуди узнает о своем знаменитом прошлом, Базз и другие игрушки проходят опасный и тернистый путь. Перед Вуди встает непростой вопрос — каково же его предназначение? Блистать в витрине музея или же вернуться к любимому хозяину?


Выпущено: Walt Disney Pictures
Продолжительность: 01:32:25
Перевод: Дублированный [Базз Лайтер]

Файл
Кодек: x264
Качество: BDRip (источник: Blu-ray Disc)
Видео: 1920x1080 (16:9), 23.976 fps, 6320 kbps
Звук: 48 kHz, AC-3, 6 ch, 448 kbps
Субтитры: Русские, Английские
Скачать: сэмпл

Скриншоты

Общее
Уникальный идентификатор : 236609964590414855792571596729581997212 (0xB2016BED9E218C5E84AE6426E9428C9C)
Полное имя : Toy.Story.2.1999.BDRip.1080p.Rus.mkv
Формат : Matroska
Версия формата : Version 2
Размер файла : 4,37 Гбайт
Продолжительность : 1 ч. 38 м.
Общий поток : 6367 Кбит/сек
Дата кодирования : UTC 2011-11-19 18:43:52
Программа кодирования : mkvmerge v4.0.0 ('The Stars were mine') сборка от Jun 6 2010 16:18:42
Библиотека кодирования : libebml v1.0.0 + libmatroska v1.0.0

Видео
Идентификатор : 1
Формат : AVC
Формат/Информация : Advanced Video Codec
Профиль формата : High@L4.1
Параметр CABAC формата : Да
Параметр ReFrames формата : 4 кадра
Идентификатор кодека : V_MPEG4/ISO/AVC
Продолжительность : 1 ч. 38 м.
Битрейт : 5793 Кбит/сек
Номинальный битрейт : 6320 Кбит/сек
Ширина : 1920 пикселей
Высота : 1080 пикселей
Соотношение сторон : 16:9
Частота кадров : 23,976 кадра/сек
Цветовое пространство : YUV
Субдискретизация насыщенности : 4:2:0
Битовая глубина : 8 бит
Тип развёртки : Прогрессивная
Бит/(Пиксели*Кадры) : 0.117
Размер потока : 3,98 Гбайт (91%)
Библиотека кодирования : x264 core 119 r2106 07efeb4
Настройки программы : cabac=1 / ref=4 / deblock=1:0:0 / analyse=0x3:0x133 / me=umh / subme=10 / psy=1 / psy_rd=1.00:0.00 / mixed_ref=1 / me_range=32 / chroma_me=1 / trellis=2 / 8x8dct=1 / cqm=0 / deadzone=21,11 / fast_pskip=0 / chroma_qp_offset=-2 / threads=12 / sliced_threads=0 / nr=0 / decimate=1 / interlaced=0 / bluray_compat=0 / constrained_intra=0 / bframes=3 / b_pyramid=2 / b_adapt=2 / b_bias=0 / direct=3 / weightb=1 / open_gop=0 / weightp=2 / keyint=240 / keyint_min=24 / scenecut=40 / intra_refresh=0 / rc_lookahead=60 / rc=2pass / mbtree=1 / bitrate=6320 / ratetol=1.0 / qcomp=0.60 / qpmin=0 / qpmax=69 / qpstep=4 / cplxblur=20.0 / qblur=0.5 / ip_ratio=1.40 / aq=1:1.00
Язык : English

Аудио
Идентификатор : 2
Формат : AC-3
Формат/Информация : Audio Coding 3
Расширение режима : CM (complete main)
Идентификатор кодека : A_AC3
Продолжительность : 1 ч. 38 м.
Вид битрейта : Постоянный
Битрейт : 448 Кбит/сек
Каналы : 6 каналов
Расположение каналов : Front: L C R, Side: L R, LFE
Частота : 48,0 КГц
Битовая глубина : 16 бит
Метод сжатия : С потерями
Размер потока : 315 Мбайт (7%)
Язык : Russian

Текст #1
Идентификатор : 3
Формат : UTF-8
Идентификатор кодека : S_TEXT/UTF8
Идентификатор кодека/Информация : UTF-8 Plain Text
Язык : Russian

Текст #2
Идентификатор : 4
Формат : UTF-8
Идентификатор кодека : S_TEXT/UTF8
Идентификатор кодека/Информация : UTF-8 Plain Text
Язык : English

Меню
00:00:00.000 : :Chapter 01
00:01:23.583 : :Chapter 02
00:04:48.287 : :Chapter 03
00:07:35.788 : :Chapter 04
00:10:40.931 : :Chapter 05
00:11:54.797 : :Chapter 06
00:12:47.099 : :Chapter 07
00:15:29.928 : :Chapter 08
00:18:15.844 : :Chapter 09
00:20:17.591 : :Chapter 10
00:24:14.035 : :Chapter 11
00:25:54.386 : :Chapter 12
00:30:32.121 : :Chapter 13
00:31:48.448 : :Chapter 14
00:32:51.469 : :Chapter 15
00:36:44.994 : :Chapter 16
00:39:09.138 : :Chapter 17
00:39:53.057 : :Chapter 18
00:41:06.338 : :Chapter 19
00:42:26.210 : :Chapter 20
00:44:41.345 : :Chapter 21
00:46:58.565 : :Chapter 22
00:53:23.950 : :Chapter 23
00:56:19.918 : :Chapter 24
01:01:10.041 : :Chapter 25
01:02:14.272 : :Chapter 26
01:04:23.901 : :Chapter 27
01:08:00.409 : :Chapter 28
01:09:52.187 : :Chapter 29
01:12:27.467 : :Chapter 30
01:14:58.493 : :Chapter 31
01:17:28.310 : :Chapter 32
01:19:46.281 : :Chapter 33
01:21:35.807 : :Chapter 34
01:25:48.977 : :Chapter 35
01:32:25.164 : :Chapter 36



   Похожие торренты   Торрент   Размер 
В этой теме нет новых непрочитанных сообщений. История Игрушек 2 / Toy Story 2 (1999) BDRip 1080p

9 | 4

6.85 ГБ

В этой теме нет новых непрочитанных сообщений. История игрушек 2 / Toy Story 2 (1999) BDRip 1080p | 3D

54 | 3

5.21 ГБ

В этой теме нет новых непрочитанных сообщений. История игрушек 2 / Toy Story 2 (1999) BDRemux 1080p от alur2 | D

9 | 6

19.12 ГБ

В этой теме нет новых непрочитанных сообщений. История игрушек [Трилогия] / Toy Story [Trilogy] (1995; 1999; 2010) BDRip 1080p от Ash61 | 3D-Video | halfOU

10 | 0

23.53 ГБ

В этой теме нет новых непрочитанных сообщений. История Игрушек 2 / Toy Story 2 (1999) BDRip от RP4 CHG

3 | 2

700.9 МБ

В этой теме нет новых непрочитанных сообщений. История игрушек 2 / Toy Story 2 (1999) BDRip-AVC

76 | 4

744.4 МБ

В этой теме нет новых непрочитанных сообщений. История игрушек 2 / Toy Story 2 (1999) BDRip-AVC | iPhone

69 | 12

1.31 ГБ




Вы не можете начинать темы
Вы не можете отвечать на сообщения
Вы не можете редактировать свои сообщения
Вы не можете удалять свои сообщения
Вы не можете добавлять вложения

Перейти:  
Для Мосгорсуда, Роскомнадзора и рекламодателей: mosgorsud-torrent[собачка]yandex.ru
 Вход
ppkBB3cker v.2 © 2008-2014 @ PPK
[ Time : 2.511s | 17 Queries | GZIP : Off ]

cron