img image001 image001 image001 image001 image001 image001 image001 image001 image001 image001 image001 image001 image001 image001 image001

Planets Sun Sun Sun
Статистика раздачи
Автор: Снежана | Размер: 4.37 ГБ | Добавлен: 27 июл 2013
Раздают: 5    Качают: 3
Скачать торрент
Скачать торрент
Описание торрента

СообщениеДобавлено: 27 июл 2013 

#77


Информация о фильме
Название: Морская бригада
Оригинальное название: SeaFood
Год выхода: 2011
Жанр: Мультфильм
Режиссер: Аун Хое Го

О фильме:
Две бамбуковые акулы — Пап и Джулиус — покидают свой родной риф и отправляются в рискованное и увлекательное приключение к берегам континента с целью спасти своих собратьев от распоясавшихся браконьеров.


Страна: Малайзия
Продолжительность: 01:32:04
Перевод: Профессиональный (дублированный) [Лицензия]

Файл
Кодек: H.264
Качество: BDRip720p
Видео: 6351 Кбит/сек, 1280*720 (16:9), в 24,000 кадр/сек, AVC (High@L4.1)
Звук: Russian, 448 Кбит/сек, 48,0 КГц, 16 бит, 6 канала(ов), AC-3


Общее
Уникальный идентификатор : 212636930315247356403368769993000734889 (0x9FF862154F79C4B3942F1DA13C8DD0A9)
Полное имя : E:торрентSeaFood (2011) BDRip720p.mkv
Формат : Matroska
Размер файла : 4,37 Гбайт
Продолжительность : 1 ч. 32 м.
Общий поток : 6798 Кбит/сек
Дата кодирования : UTC 2011-11-25 17:20:48
Программа кодирования : mkvmerge v5.0.1 ('Es ist Sommer') built on Oct 9 2011 11:55:43
Библиотека кодирования : libebml v1.2.2 + libmatroska v1.3.0

Видео
Идентификатор : 1
Формат : AVC
Формат/Информация : Advanced Video Codec
Профиль формата : High@L4.1
Параметр CABAC формата : Да
Параметр ReFrames формата : 9 кадры
Идентификатор кодека : V_MPEG4/ISO/AVC
Продолжительность : 1 ч. 32 м.
Битрейт : 6351 Кбит/сек
Ширина : 1280 пикс.
Высота : 720 пикс.
Соотношение сторон : 16:9
Частота кадров : 24,000 кадр/сек
Цветовое пространство : YUV
Подвыборка цветности : 4:2:0
Битовая глубина : 8 бит
Тип развёртки : Прогрессивная
Бит/(Пиксели*Кадры) : 0.287
Размер потока : 4,00 Гбайт (91%)
Библиотека кодирования : x264 core 119 r2106 07efeb4
Настройки программы : cabac=1 / ref=9 / deblock=1:1:1 / analyse=0x3:0x113 / me=umh / subme=10 / psy=1 / psy_rd=0.70:0.10 / mixed_ref=1 / me_range=32 / chroma_me=1 / trellis=2 / 8x8dct=1 / cqm=0 / deadzone=21,11 / fast_pskip=0 / chroma_qp_offset=-3 / threads=6 / sliced_threads=0 / nr=0 / decimate=1 / interlaced=0 / bluray_compat=0 / constrained_intra=0 / bframes=6 / b_pyramid=2 / b_adapt=2 / b_bias=0 / direct=3 / weightb=1 / open_gop=0 / weightp=2 / keyint=250 / keyint_min=23 / scenecut=40 / intra_refresh=0 / rc_lookahead=60 / rc=2pass / mbtree=1 / bitrate=6351 / ratetol=1.0 / qcomp=0.70 / qpmin=10 / qpmax=55 / qpstep=4 / cplxblur=20.0 / qblur=0.5 / ip_ratio=1.40 / aq=1:0.60
Язык : English

Аудио
Идентификатор : 2
Формат : AC-3
Формат/Информация : Audio Coding 3
Расширение режима : CM (complete main)
Идентификатор кодека : A_AC3
Продолжительность : 1 ч. 32 м.
Вид битрейта : Постоянный
Битрейт : 448 Кбит/сек
Канал(ы) : 6 канала(ов)
Расположение каналов : Front: L C R, Side: L R, LFE
Частота : 48,0 КГц
Битовая глубина : 16 бит
Метод сжатия : С потерями
Размер потока : 295 Мбайт (7%)
Язык : Russian

Меню
00:00:00.000 : en:Chapter 01
00:16:33.000 : en:Chapter 02
00:29:49.916 : en:Chapter 03
00:43:34.041 : en:Chapter 04
01:02:32.541 : en:Chapter 05
01:16:11.041 : en:Chapter 06



Релиз от:



   Похожие торренты   Торрент   Размер 
В этой теме нет новых непрочитанных сообщений. Морская бригада / SeaFood (2011) BDRip 1080p от Freeisland

2 | 6

4.37 ГБ

В этой теме нет новых непрочитанных сообщений. Морская бригада / SeaFood (2011) BDRip 720 от SuperMin

22 | 8

2.58 ГБ

В этой теме нет новых непрочитанных сообщений. Морская бригада / SeaFood (2011) DVD5

1 | 3

4.25 ГБ

В этой теме нет новых непрочитанных сообщений. Морская бригада / SeaFood (2011) HDRip

10 | 6

700.11 МБ

В этой теме нет новых непрочитанных сообщений. Морская бригада / SeaFood (2011) Blu-Ray 1080p

0 | 3

16.32 ГБ

В этой теме нет новых непрочитанных сообщений. Морская бригада / SeaFood (2011) DVDRip | Лицензия

38 | 3

1.37 ГБ

В этой теме нет новых непрочитанных сообщений. Морская бригада / SeeFood (2011) BDRip-AVC

8 | 3

1.7 ГБ




Вы не можете начинать темы
Вы не можете отвечать на сообщения
Вы не можете редактировать свои сообщения
Вы не можете удалять свои сообщения
Вы не можете добавлять вложения

Перейти:  
Для Мосгорсуда, Роскомнадзора и рекламодателей: mosgorsud-torrent[собачка]yandex.ru
 Вход
ppkBB3cker v.2 © 2008-2014 @ PPK
[ Time : 0.090s | 14 Queries | GZIP : Off ]

Торрент трекер RUTOR.IN, Не можете зайти на rutor.org? Какой новый адрес рутор? Какое зеркало рутор? Не работает rutor.org и зеркала? Тогда наш торрент специально для вас. Rutor.in неофициальное зеркало rutor. В случае если у Вас заблокирован rutor или вдруг Вы не можете на него зайти, то Вы без труда сможете скачать бесплатно и без рекламы последние новинки кино, игр, сериалов и прочего у нас, на Rutor.in. Не нужно использовать прокси, чтобы зайти на рутор, достаточно воспользоваться нашим ресурсом. Все новые фильмы, игры, сериалы, книги и музыка за 2013 и 2014 годы через торрент бесплатно. Скачивайте фильмы в хорошем качестве, игры для пк, xbox, playstation без регистрации. У нас вы найдете новые Зарубежные сериалы и Русские сериалы 2013, 2014, 2015 годов. Оставайтесь с нами, качайте любимые фильмы, игры, сериалы, книги и музыку.