img image001 image001 image001 image001 image001 image001 image001 image001 image001 image001 image001 image001 image001 image001 image001

Planets Sun Sun Sun
Статистика раздачи
Автор: Снежана | Размер: 24.98 ГБ | Добавлен: 27 июл 2013
Раздают: 1    Качают: 1
Скачать торрент
Скачать торрент
Описание торрента

СообщениеДобавлено: 27 июл 2013 

#77

Название: Игорь
Оригинальное название: Igor
Год выхода: 2008
Страна: США, Франция
Жанр: Мультфильм, фэнтези, комедия, семейный
Режиссер: Энтони Леондис / Anthony Leondis
В ролях: Джон Кьюсак, Майлин Класс, Робин Уолш, Мэтт МакКенна, Джон Клиз, Стив Бушеми, Шон Хейс, Джесс Харнелл, Эдди Иззард, Дженнифер Кулидж

О фильме: В мире, населенном Безумными Учеными и Злыми Изобретателями, один талантливый помощник злого ученого мечтает сам стать ученым и выиграть ежегодную Злую Ярмарку Науки.

Информация о файле:
Качество: BD Remux
Продолжительность: 01:26:33
Язык (перевод):
1) русский дублированный
2) русский двухголосый закадровый
3) оригинальная английская дорожка
4) английские комментарии
Субтитры: русские - 2 вида, русские (на песни), английские - 2 вида
Формат: MKV

Видео: MPEG-4 AVC, 36351 kbps, 1080p, 23,976 fps, 16:9, High Profile 4.1
Аудио 1: Dolby Digital 5.1, 384 kbps, 48 kHz
Аудио 2: Dolby Digital 5.1, 448 kbps. 48 kHz
Аудио 3: DTS-HD Master 5.1, 3971 kbps, 48 kHz, 24-bit (DTS Core: 5.1, 48 kHz, 1509 kbps, 24-bit, DN -4dB)
Аудио 4: Dolby Digital 2.0, 192 kbps, 48 kHz
Полное имя : Igor.2008.Blu-ray.1080p.AVC.Rus.Eng.mkv
Формат : Matroska
Размер файла : 25,0 Гбайт
Продолжительность : 1 ч. 26 м.
Общий поток : 41,3 Мбит/сек
Название фильма : HANSMER
Дата кодирования : UTC 2010-12-23 20:52:37
Программа кодирования : mkvmerge v4.4.0 ('Die Wiederkehr') сборка от Oct 31 2010 21:52:48
Библиотека кодирования : libebml v1.0.0 + libmatroska v1.0.0

Видео
Идентификатор : 1
Формат : AVC
Формат/Информация : Advanced Video Codec
Профиль формата : High@L4.1
Параметр CABAC формата : Да
Параметр ReFrames формата : 4 кадры
Режим смешивания : Container profile=Unknown@0.0
Идентификатор кодека : V_MPEG4/ISO/AVC
Продолжительность : 1 ч. 26 м.
Вид битрейта : Переменный
Битрейт : 37,9 Мбит/сек
Максимальный битрейт : 40,0 Мбит/сек
Ширина : 1920 пикс.
Высота : 1080 пикс.
Соотношение сторон : 16:9
Частота кадров : 23,976 кадр/сек
Цветовое пространство : YUV
Подвыборка цветности : 4:2:0
Битовая глубина : 8 бит
Тип развёртки : Прогрессивная
Бит/(Пиксели*Кадры) : 0.762
Размер потока : 22,9 Гбайт (92%)
Заголовок : Igor.2008.Blu-ray.1080p.AVC @ 36351 kbps
Язык : English
Основные цвета : BT.709-5, BT.1361, IEC 61966-2-4, SMPTE RP177
Характеристики трансфера : BT.709-5, BT.1361
Коэффициенты матрицы : BT.709-5, BT.1361, IEC 61966-2-4 709, SMPTE RP177

Аудио #1
Идентификатор : 2
Формат : AC-3
Формат/Информация : Audio Coding 3
Расширение режима : CM (complete main)
Идентификатор кодека : A_AC3
Продолжительность : 1 ч. 26 м.
Вид битрейта : Постоянный
Битрейт : 384 Кбит/сек
Канал(ы) : 6 канала(ов)
Расположение каналов : Front: L C R, Side: L R, LFE
Частота : 48,0 КГц
Битовая глубина : 16 бит
Метод сжатия : С потерями
Размер потока : 238 Мбайт (1%)
Заголовок : Dub
Язык : Russian

Аудио #2
Идентификатор : 3
Формат : AC-3
Формат/Информация : Audio Coding 3
Расширение режима : CM (complete main)
Идентификатор кодека : A_AC3
Продолжительность : 1 ч. 26 м.
Вид битрейта : Постоянный
Битрейт : 448 Кбит/сек
Канал(ы) : 6 канала(ов)
Расположение каналов : Front: L C R, Side: L R, LFE
Частота : 48,0 КГц
Битовая глубина : 16 бит
Метод сжатия : С потерями
Размер потока : 277 Мбайт (1%)
Заголовок : Voice over
Язык : Russian

Аудио #3
Идентификатор : 4
Формат : DTS
Формат/Информация : Digital Theater Systems
Профиль формата : MA / Core
Идентификатор кодека : A_DTS
Продолжительность : 1 ч. 26 м.
Вид битрейта : Переменный
Битрейт : 1561 Кбит/сек / 1510 Кбит/сек
Канал(ы) : 6 канала(ов)
Расположение каналов : Front: L C R, Side: L R, LFE
Частота : 48,0 КГц
Битовая глубина : 24 бит
Метод сжатия : Без потерь / Lossy
Заголовок : DTS-HD MA 5.1 @ 3971 kbps
Язык : English

Аудио #4
Идентификатор : 5
Формат : AC-3
Формат/Информация : Audio Coding 3
Расширение режима : CM (complete main)
Идентификатор кодека : A_AC3
Продолжительность : 1 ч. 26 м.
Вид битрейта : Постоянный
Битрейт : 224 Кбит/сек
Канал(ы) : 2 канала(ов)
Расположение каналов : Front: L R
Частота : 48,0 КГц
Битовая глубина : 16 бит
Метод сжатия : С потерями
Размер потока : 139 Мбайт (1%)
Заголовок : Commentary
Язык : English

Текст #1
Идентификатор : 6
Формат : UTF-8
Идентификатор кодека : S_TEXT/UTF8
Идентификатор кодека/Информация : UTF-8 Plain Text
Заголовок : Forced
Язык : Russian

Текст #2
Идентификатор : 7
Формат : UTF-8
Идентификатор кодека : S_TEXT/UTF8
Идентификатор кодека/Информация : UTF-8 Plain Text
Заголовок : R5
Язык : Russian

Текст #3
Идентификатор : 8
Формат : UTF-8
Идентификатор кодека : S_TEXT/UTF8
Идентификатор кодека/Информация : UTF-8 Plain Text
Язык : Russian

Текст #4
Идентификатор : 9
Формат : UTF-8
Идентификатор кодека : S_TEXT/UTF8
Идентификатор кодека/Информация : UTF-8 Plain Text
Язык : English

Текст #5
Идентификатор : 10
Формат : PGS
Идентификатор кодека : S_HDMV/PGS
Идентификатор кодека/Информация : The same subtitle format used on BDs/HD-DVDs
Язык : English

Меню
00:00:00.000 : en:The Kingdom of Malaria
00:05:12.312 : en:Igor's Inventions
00:07:39.876 : en:Undefeated Winner
00:11:03.496 : en:Unleashing Pain
00:15:15.956 : en:Pull the Switch!
00:18:59.888 : en:Blind Orphans
00:22:40.484 : en:Hurt a Fly?
00:24:35.724 : en:Brain Wash
00:29:31.019 : en:High-Speed Chase
00:33:27.255 : en:Born to Play Annie
00:37:42.718 : en:Talent Is Attractive
00:40:59.373 : en:Big and Round and Sweet
00:42:58.200 : en:Opening Night Presents
00:46:03.260 : en:Wish You Weren't There
00:52:03.662 : en:Psycho Girlfriend
00:55:44.132 : en:I Will Make You a Star
00:58:23.166 : en:Recycled
01:00:58.780 : en:Escape!
01:03:43.361 : en:Startling Discovery
01:06:17.682 : en:An Ugly Monster
01:08:39.031 : en:Tomorrow, Tomorrow!
01:12:56.038 : en:In the Dark
01:16:33.505 : en:A Big Step
01:19:08.910 : en:End Titles




   Похожие торренты   Торрент   Размер 
В этой теме нет новых непрочитанных сообщений. OST - Игорь / Igor (2008) MP3

12 | 3

141.05 МБ

В этой теме нет новых непрочитанных сообщений. Игорь / Igor (2008) HDRip-AVC | D

305 | 17

745.03 МБ

В этой теме нет новых непрочитанных сообщений. Игорь / Igor (2008) BDRip-AVC | iPad

0 | 2

1.42 ГБ

В этой теме нет новых непрочитанных сообщений. Игорь / Igor (2008) BDRip-AVC от DHT-Movies

0 | 2

2.18 ГБ

В этой теме нет новых непрочитанных сообщений. Игорь / Igor (2008) BDRip от HQCLUB

162 | 1

1.45 ГБ

В этой теме нет новых непрочитанных сообщений. OST - Игорь / Igor [Patrick Doyle] (2008) MP3

7 | 1

143.01 МБ

В этой теме нет новых непрочитанных сообщений. Игорь / Igor (2008) DVDRip-AVC от FireBit

16 | 4

1.46 ГБ




Вы не можете начинать темы
Вы не можете отвечать на сообщения
Вы не можете редактировать свои сообщения
Вы не можете удалять свои сообщения
Вы не можете добавлять вложения

Перейти:  
Для Мосгорсуда, Роскомнадзора и рекламодателей: mosgorsud-torrent[собачка]yandex.ru
 Вход
ppkBB3cker v.2 © 2008-2014 @ PPK
[ Time : 0.061s | 15 Queries | GZIP : Off ]

Торрент трекер RUTOR.IN, Не можете зайти на rutor.org? Какой новый адрес рутор? Какое зеркало рутор? Не работает rutor.org и зеркала? Тогда наш торрент специально для вас. Rutor.in неофициальное зеркало rutor. В случае если у Вас заблокирован rutor или вдруг Вы не можете на него зайти, то Вы без труда сможете скачать бесплатно и без рекламы последние новинки кино, игр, сериалов и прочего у нас, на Rutor.in. Не нужно использовать прокси, чтобы зайти на рутор, достаточно воспользоваться нашим ресурсом. Все новые фильмы, игры, сериалы, книги и музыка за 2013 и 2014 годы через торрент бесплатно. Скачивайте фильмы в хорошем качестве, игры для пк, xbox, playstation без регистрации. У нас вы найдете новые Зарубежные сериалы и Русские сериалы 2013, 2014, 2015 годов. Оставайтесь с нами, качайте любимые фильмы, игры, сериалы, книги и музыку.