img image001 image001 image001 image001 image001 image001 image001 image001 image001 image001 image001 image001 image001 image001 image001

Planets Sun Sun Sun
Статистика раздачи
Автор: Снежана | Размер: 5.6 ГБ | Добавлен: 27 июл 2013
Раздают: 7    Качают: 1
Скачать торрент
Скачать торрент
Описание торрента

СообщениеДобавлено: 27 июл 2013 

#77

Название: Последний единорог
Оригинальное название: The Last Unicorn
Год выхода: 1982
Страна: США
Жанр: мультфильм, фэнтези, семейный, детский
Режиссер: Жюль Басс, Артур Ранкин мл. / Jules Bass, Arthur Rankin Jr.
В ролях: Алан Аркин, Джеф Бриджес, Миа Ферроу Темми Гримс, Роберт Клейн, Анжела Ленсбери, Кристофер Ли

О фильме: В далекой волшебной стране в сиреневой роще жил юный прекрасный единорог, знающий секреты магии. Однажды он узнал, что все его сородичи исчезли с лица земли, и он может стать последним единорогом на свете. И тогда единорог покинул свою рощу и отправился в долгое и опасное путешествие, чтобы разыскать и спасти своих сородичей. Много приключений пришлось ему пережить и многих опасных врагов довелось повстречать - свиноподобную ведьму Матушку Фортуну, шайку разбойников капитана Калли, злобного и жадного короля Хэггорда. Но с помощью верных друзей - волшебника-недоучки Шмендрика, девушки Молли и прекрасного принца Лира - единорогу удалось одолеть огромного и страшного Красного Быка и освободить своих собратьев-единорогов.


Информация о файле:
Качество: BDRip 1080p
Продолжительность: 01:33:03
Язык (перевод):
1) русский многоголосый закадровый
2) оригинальная английская дорожка
Субтитры: русские, английские
Формат: MKV

Видео: AVC, 1920x1040, 23,976 fps, ~6.9 Mbps, 0.144 bit/pix
Аудио 1: AC3, 48 Khz, 2 ch, 224 kbps
Аудио 2: DTS, 48 Khz, 6 ch, 1510 kbps
Video
ID : 1
Format : AVC
Format/Info : Advanced Video Codec
Format profile : High@L4.1
Format settings, CABAC : Yes
Format settings, ReFrames : 4 frames
Codec ID : V_MPEG4/ISO/AVC
Duration : 1h 33mn
Bit rate mode : Variable
Bit rate : 6 876 Kbps
Maximum bit rate : 25.0 Mbps
Width : 1 920 pixels
Height : 1 040 pixels
Display aspect ratio : 16:9
Frame rate : 23.976 fps
Color space : YUV
Chroma subsampling : 4:2:0
Bit depth : 8 bits
Scan type : Progressive
Bits/(Pixel*Frame) : 0.144
Stream size : 4.36 GiB (78%)
Writing library : x264 core 114 r1913 5fd3dce
Encoding settings : cabac=1 / ref=4 / deblock=1:0:0 / analyse=0x3:0x133 / me=umh / subme=7 / psy=1 / psy_rd=1.00:0.00 / mixed_ref=1 / me_range=16 / chroma_me=1 / trellis=1 / 8x8dct=1 / cqm=0 / deadzone=21,11 / fast_pskip=1 / chroma_qp_offset=-2 / threads=6 / sliced_threads=0 / nr=0 / decimate=1 / interlaced=0 / constrained_intra=0 / bframes=4 / b_pyramid=0 / b_adapt=1 / b_bias=0 / direct=1 / weightb=1 / open_gop=0 / weightp=2 / keyint=240 / keyint_min=24 / scenecut=40 / intra_refresh=0 / rc_lookahead=40 / rc=2pass / mbtree=1 / bitrate=6876 / ratetol=1.0 / qcomp=0.60 / qpmin=0 / qpmax=69 / qpstep=4 / cplxblur=20.0 / qblur=0.5 / vbv_maxrate=25000 / vbv_bufsize=25000 / nal_hrd=vbr / ip_ratio=1.40 / aq=1:1.00

Audio #1
ID : 2
Format : AC-3
Format/Info : Audio Coding 3
Format profile : Dolby Digital
Mode extension : CM (complete main)
Codec ID : A_AC3
Duration : 1h 33mn
Bit rate mode : Constant
Bit rate : 224 Kbps
Channel(s) : 2 channels
Channel positions : Front: L R
Sampling rate : 48.0 KHz
Bit depth : 16 bits
Stream size : 149 MiB (3%)
Language : Russian

Audio #2
ID : 3
Format : DTS
Format/Info : Digital Theater Systems
Codec ID : A_DTS
Duration : 1h 33mn
Bit rate mode : Constant
Bit rate : 1 510 Kbps
Channel(s) : 6 channels
Channel positions : Front: L C R, Side: L R, LFE
Sampling rate : 48.0 KHz
Bit depth : 24 bits
Stream size : 1 005 MiB (18%)
Language : English

Text #1
ID : 4
Format : UTF-8
Codec ID : S_TEXT/UTF8
Codec ID/Info : UTF-8 Plain Text
Language : Russian

Text #2
ID : 5
Format : UTF-8
Codec ID : S_TEXT/UTF8
Codec ID/Info : UTF-8 Plain Text
Language : English




   Похожие торренты   Торрент   Размер 
В этой теме нет новых непрочитанных сообщений. Последний Единорог / The Last Unicorn (1982) BDRip 720p

0 | 2

3.41 ГБ

В этой теме нет новых непрочитанных сообщений. Последний Единорог / The Last Unicorn (1982) BDRip от HQCLUB

84 | 6

1.45 ГБ

В этой теме нет новых непрочитанных сообщений. Последний единорог / The Last Unicorn (1982) BDRip-AVC от MediaClub | D, P

26 | 4

2.71 ГБ

В этой теме нет новых непрочитанных сообщений. Последний Единорог / The Last Unicorn (1982) BDRip 1080р от NNNB

66 | 5

7.77 ГБ

В этой теме нет новых непрочитанных сообщений. Последний единорог / The Last Unicorn (1982) BDRip 720p от Koenig | Enchanted Edition | D, P

9 | 0

4.37 ГБ

В этой теме нет новых непрочитанных сообщений. Последний Единорог / The Last Unicorn (1982) DVD5

0 | 2

4.24 ГБ

В этой теме нет новых непрочитанных сообщений. Последний Единорог / The Last Unicorn (1982) HDRip | P

44 | 8

743.78 МБ




Вы не можете начинать темы
Вы не можете отвечать на сообщения
Вы не можете редактировать свои сообщения
Вы не можете удалять свои сообщения
Вы не можете добавлять вложения

Перейти:  
Для Мосгорсуда, Роскомнадзора и рекламодателей: mosgorsud-torrent[собачка]yandex.ru
 Вход
ppkBB3cker v.2 © 2008-2014 @ PPK
[ Time : 0.724s | 14 Queries | GZIP : Off ]

Торрент трекер RUTOR.IN, Не можете зайти на rutor.org? Какой новый адрес рутор? Какое зеркало рутор? Не работает rutor.org и зеркала? Тогда наш торрент специально для вас. Rutor.in неофициальное зеркало rutor. В случае если у Вас заблокирован rutor или вдруг Вы не можете на него зайти, то Вы без труда сможете скачать бесплатно и без рекламы последние новинки кино, игр, сериалов и прочего у нас, на Rutor.in. Не нужно использовать прокси, чтобы зайти на рутор, достаточно воспользоваться нашим ресурсом. Все новые фильмы, игры, сериалы, книги и музыка за 2013 и 2014 годы через торрент бесплатно. Скачивайте фильмы в хорошем качестве, игры для пк, xbox, playstation без регистрации. У нас вы найдете новые Зарубежные сериалы и Русские сериалы 2013, 2014, 2015 годов. Оставайтесь с нами, качайте любимые фильмы, игры, сериалы, книги и музыку.