img image001 image001 image001 image001 image001 image001 image001 image001 image001 image001 image001 image001 image001 image001 image001

Planets Sun Sun Sun
Статистика раздачи
Автор: Снежана | Размер: 746.14 МБ | Добавлен: 27 июл 2013
Раздают: 107    Качают: 10
Скачать торрент
Скачать торрент
Описание торрента

СообщениеДобавлено: 27 июл 2013 

#77

Информация о фильме
Название: Барби: Чудесное Рождество
Оригинальное название: Barbie: A Perfect Christmas
Год выхода: 2011
Жанр: мультфильм
Режиссер: Марк Балдо / Mark Baldo, Терри Классен / Terry Klassen
В ролях: Диана Каарина /Diana Kaarina/, Рейчел Харрисон /Rachel Harrison/, Лорен Лавойе /Lauren Lavoie/, Эшлин Драммонд /Ashlyn Drummond/, Марика Хендрикс /Maryke Hendrikse/, Патриция Дрэйк /Patricia Drake/, Чиара Занни /Chiara Zanni/

О фильме:
Барби и ее сестры отправляются в Нью-Йорк, чтобы отметить Рождество порознь, но их планы рушит снежная буря, и праздник приходится справлять в тесном семейном кругу.

Страна: США
Студия: Universal Studios
Продолжительность: 01:10:29
Перевод: Профессиональный (полное дублирование)

Файл
Кодек: XviD / MP3
Качество: DVDRip
Видео: XviD, 720x416 (16:9), 25.000 fps, 1 345 Kbps (0.180 bit/pixel)
Звук: MP3, 48.0 KHz, 2 ch, 128 Kbps, CBR (Russian)

General
Complete name : E:Barbie.A.Perfect.Christmas_DVDRip.745_[Rutor.org].avi
Format : AVI
Format/Info : Audio Video Interleave
File size : 746 MiB
Duration : 1h 10mn
Overall bit rate : 1 480 Kbps
Writing application : VirtualDubMod 1.5.4.1 (build 2178/release)
Writing library : VirtualDubMod build 2178/release

Video
ID : 0
Format : MPEG-4 Visual
Format profile : Advanced Simple@L5
Format settings, BVOP : 1
Format settings, QPel : No
Format settings, GMC : No warppoints
Format settings, Matrix : Custom
Codec ID : XVID
Codec ID/Hint : XviD
Duration : 1h 10mn
Bit rate : 1 345 Kbps
Width : 720 pixels
Height : 416 pixels
Display aspect ratio : 16:9
Frame rate : 25.000 fps
Color space : YUV
Chroma subsampling : 4:2:0
Bit depth : 8 bits
Scan type : Progressive
Compression mode : Lossy
Bits/(Pixel*Frame) : 0.180
Stream size : 678 MiB (91%)
Writing library : XviD 64

Audio
ID : 1
Format : MPEG Audio
Format version : Version 1
Format profile : Layer 3
Mode : Joint stereo
Codec ID : 55
Codec ID/Hint : MP3
Duration : 1h 10mn
Bit rate mode : Constant
Bit rate : 128 Kbps
Channel(s) : 2 channels
Sampling rate : 48.0 KHz
Compression mode : Lossy
Stream size : 64.5 MiB (9%)
Alignment : Aligned on interleaves
Interleave, duration : 80 ms (2.00 video frames)
Interleave, preload duration : 504 ms
Writing library : LAME3.99r
Encoding settings : -m j -V 4 -q 2 -lowpass 17 -b 128
Language : Russian




   Похожие торренты   Торрент   Размер 
В этой теме нет новых непрочитанных сообщений. Барби: Чудесное Рождество / Barbie: A Perfect Christmas (2011) DVDRip

70 | 7

1.46 ГБ

В этой теме нет новых непрочитанных сообщений. Барби: Чудесное Рождество / Barbie: A Perfect Christmas (2011) DVDRip-AVC от ExKinoRay

125 | 12

1.37 ГБ

В этой теме нет новых непрочитанных сообщений. Барби: Чудесное Рождество / Barbie: A Perfect Christmas (2011) DVD9

2 | 5

5.64 ГБ

В этой теме нет новых непрочитанных сообщений. Барби: Рождественская история / Barbie In A Christmas Carol (2008) DVDRip

253 | 6

695.98 МБ

В этой теме нет новых непрочитанных сообщений. Барби: Рождественская история / Barbie In A Christmas Carol (2008) DVDRip от New-Team| D + Original

406 | 27

1.46 ГБ

В этой теме нет новых непрочитанных сообщений. Красавица и чудовище: Чудесное Рождество / Beauty and the Beast: The Enchanted Christmas (1997) BDRip от HQCLUB

176 | 5

1.46 ГБ

В этой теме нет новых непрочитанных сообщений. Красавица и чудовище: Чудесное Рождество / Beauty and the Beast: The Enchanted Christmas (1997) BDRip 1080р

145 | 19

6.35 ГБ




Вы не можете начинать темы
Вы не можете отвечать на сообщения
Вы не можете редактировать свои сообщения
Вы не можете удалять свои сообщения
Вы не можете добавлять вложения

Перейти:  
Для Мосгорсуда, Роскомнадзора и рекламодателей: mosgorsud-torrent[собачка]yandex.ru
 Вход
ppkBB3cker v.2 © 2008-2014 @ PPK
[ Time : 0.048s | 14 Queries | GZIP : Off ]

Торрент трекер RUTOR.IN, Не можете зайти на rutor.org? Какой новый адрес рутор? Какое зеркало рутор? Не работает rutor.org и зеркала? Тогда наш торрент специально для вас. Rutor.in неофициальное зеркало rutor. В случае если у Вас заблокирован rutor или вдруг Вы не можете на него зайти, то Вы без труда сможете скачать бесплатно и без рекламы последние новинки кино, игр, сериалов и прочего у нас, на Rutor.in. Не нужно использовать прокси, чтобы зайти на рутор, достаточно воспользоваться нашим ресурсом. Все новые фильмы, игры, сериалы, книги и музыка за 2013 и 2014 годы через торрент бесплатно. Скачивайте фильмы в хорошем качестве, игры для пк, xbox, playstation без регистрации. У нас вы найдете новые Зарубежные сериалы и Русские сериалы 2013, 2014, 2015 годов. Оставайтесь с нами, качайте любимые фильмы, игры, сериалы, книги и музыку.