img image001 image001 image001 image001 image001 image001 image001 image001 image001 image001 image001 image001 image001 image001 image001

Planets Sun Sun Sun
Статистика раздачи
Автор: Снежана | Размер: 659.63 МБ | Добавлен: 27 июл 2013
Раздают: 97    Качают: 8
Скачать торрент
Скачать торрент
Описание торрента

СообщениеДобавлено: 27 июл 2013 

Кредо убийцы: Господство / Assassin's Creed: Ascendance
(2010)
BDRemux от FREEISLAND




Информация о фильме
Название: Кредо убийцы: Господство
Оригинальное название: Assassin's Creed: Ascendance
Год выхода: 2010
Жанр: Боевик, приключение, короткометражка
Режиссер: Лоррент Берниер / Laurent Bernier
Роли озвучивали:
Октавиан де Валуа — Артур Хольден
Эцио Аудиторе — Роджер Крейг Смит
Леонардо да Винчи — Карлос Феро
Хуан Борджиа — Гарри Стандовски
Чезаре Борджиа — Андреас Апергис

О фильме:
Фильм служит «мостом» между Assassin's Creed II и Assassin's Creed Brotherhood и повествует о мастере ассасине Эцио Аудиторе, который отправляется в Рим в поисках информации о семье Борджиа, захватившей власть над Италией.
История Чезаре Борджиа описывается неким человеком в капюшоне, который раскрывает всю правду о методах жестокого тирана в борьбе за власть.

Братоубийство, предательства, пытки... Чезаре любой ценой стремится к полному и безграничному контролю. Эцио нашел своего врага.

Дополнительно:
Перевод осуществлён командой TMcreators.ucoz.ru специально для сайта AssassinGame.ru



Страна/Студия: Канада, Ubisoft Montreal
Продолжительность: 7 м. 55 с.
Язык: Английский (оригинал)
Перевод: Любительский многоголосый закадровый (TMcreators)

Файл
Качество: BDRemux
Контейнер: MKV
Видео: AVC at 9818 Кбит/сек, 1920 x 1080 (1.778) at 23.976 fps
Аудио №1 (RUS): Vorbis at 128 Кбит/сек, 2 канала, 44,1 КГц MVO (TMcreators)
Аудио №2 (ENG): DTS-HDMA 1694 kbps 2.0 / 48 kHz / 16-bit (DTS Core: 2.0 / 48 kHz / 1509 kbps / 16-bit) (оригинал)

Общее
Уникальный идентификатор : 204228385141923663382664135727184395092 (0x99A4F4CC65EC125BB69E48B5B010BB54)
Полное имя : Assassin's Creed. Ascendance (2010) BDRemux.mkv
Формат : Matroska
Версия формата : Version 2
Размер файла : 660 Мбайт
Продолжительность : 7 м. 55 с.
Режим общего битрейта : Переменный
Общий поток : 11,6 Мбит/сек
Название фильма : релиз от FREEISLAND.ORG
Дата кодирования : UTC 2011-12-16 23:30:28
Программа кодирования : mkvmerge v5.1.0 ('And so it goes') built on Nov 28 2011 23:58:28
Библиотека кодирования : libebml v1.2.3 + libmatroska v1.3.0

Видео
Идентификатор : 1
Формат : AVC
Формат/Информация : Advanced Video Codec
Профиль формата : High@L4.1
Параметр CABAC формата : Да
Параметр ReFrames формата : 3 кадра
Параметр GOP формата : M=3, N=12
Режим смешивания : Container profile=Unknown@0.0
Идентификатор кодека : V_MPEG4/ISO/AVC
Продолжительность : 7 м. 55 с.
Вид битрейта : Переменный
Битрейт : 9726 Кбит/сек
Максимальный битрейт : 35,0 Мбит/сек
Ширина : 1920 пикселей
Высота : 1080 пикселей
Соотношение сторон : 16:9
Частота кадров : 23,976 кадра/сек
Стандарт вещания : NTSC
Цветовое пространство : YUV
Субдискретизация насыщенности : 4:2:0
Битовая глубина : 8 бит
Тип развёртки : Прогрессивная
Бит/(Пиксели*Кадры) : 0.196
Размер потока : 551 Мбайт (84%)
Основные цвета : BT.709-5, BT.1361, IEC 61966-2-4, SMPTE RP177
Характеристики трансфера : BT.709-5, BT.1361
Коэффициенты матрицы : BT.709-5, BT.1361, IEC 61966-2-4 709, SMPTE RP177

Аудио #1
Идентификатор : 2
Формат : Vorbis
Параметр Floor формата : 1
Идентификатор кодека : A_VORBIS
Продолжительность : 7 м. 55 с.
Вид битрейта : Переменный
Битрейт : 128 Кбит/сек
Каналы : 2 канала
Частота : 44,1 КГц
Метод сжатия : С потерями
Размер потока : 7,25 Мбайт (1%)
Заголовок : MVO (TMcreators)
Язык : Russian

Аудио #2
Идентификатор : 3
Формат : DTS
Формат/Информация : Digital Theater Systems
Профиль формата : MA / Core
Идентификатор кодека : A_DTS
Продолжительность : 7 м. 55 с.
Вид битрейта : Переменный
Битрейт : 1558 Кбит/сек / 1510 Кбит/сек
Каналы : 2 канала
Расположение каналов : Front: L R
Частота : 48,0 КГц
Битовая глубина : 16 бит
Метод сжатия : Без потерь / Lossy
Язык : English











Релиз от:



   Похожие торренты   Торрент   Размер 
В этой теме нет новых непрочитанных сообщений. Кредо убийцы: Господство / Assassin's Creed: Ascendance (2010) HDRip от F-Torrent

7 | 2

99.76 МБ

В этой теме нет новых непрочитанных сообщений. Кредо убийцы: Господство / Assassin's Creed: Ascendance (2010) BDRip 720p

20 | 7

204 МБ

В этой теме нет новых непрочитанных сообщений. Кредо убийцы: Родословная / Assassin's Creed: Lineage (2009) BDRemux от FREEISLAND

60 | 8

5 ГБ

В этой теме нет новых непрочитанных сообщений. Кредо убийцы / Assassin's Creed (2016) BDRemux 1080p | D, A | Лицензия

35 | 22

29.42 ГБ

В этой теме нет новых непрочитанных сообщений. Кредо убийцы / Assassin's Creed (2016) UHD BDRemux 2160p | 4K | HDR | D, A | Лицензия

11 | 11

38.43 ГБ

В этой теме нет новых непрочитанных сообщений. Кредо убийцы / Assassin's Creed (2016) UHD BDRemux 2160p от ExKinoRay | 4K | HDR | D | Лицензия

23 | 7

34.15 ГБ

В этой теме нет новых непрочитанных сообщений. Кредо убийцы / Assassin's Creed (2016) BDRemux 1080p от ExKinoRay | Лицензия

108 | 18

25.45 ГБ




Вы не можете начинать темы
Вы не можете отвечать на сообщения
Вы не можете редактировать свои сообщения
Вы не можете удалять свои сообщения
Вы не можете добавлять вложения

Перейти:  
Для Мосгорсуда, Роскомнадзора и рекламодателей: mosgorsud-torrent[собачка]yandex.ru
 Вход
ppkBB3cker v.2 © 2008-2014 @ PPK
[ Time : 0.035s | 15 Queries | GZIP : Off ]

cron