img image001 image001 image001 image001 image001 image001 image001 image001 image001 image001 image001 image001 image001 image001 image001

Planets Sun Sun Sun
Статистика раздачи
Автор: Снежана | Размер: 8.92 МБ | Добавлен: 27 июл 2013
Раздают: 3    Качают: 3
Скачать торрент
Скачать торрент
Описание торрента

СообщениеДобавлено: 27 июл 2013 

#77

Информация о фильме
Название: Скрэт и континентальный излом: Часть 2
Оригинальное название: Scrat's Continental Crack-Up: Part 2
Год выхода: 2011
Жанр: Короткометражный, Анимационный, Приключения
Режиссер: Стив Мартино
В ролях: Рэй Романо, Джон Легуизамо, Куин Латифа, Дэнис Лири, Джош Пек, Крис Уэдж, Кунал Нэйэр, Дженнифер Лопез, Шонн Уильям Скотт, Хезер Моррис

О фильме:
И опять Скрэт со своим орехом расколола земной шар и вызвала глобальный катаклизм! В результате Мэнни, Сид и Диего оказываются в море, отрезанные от своих друзей. В поисках пути назад наша троица пускается в опасное путешествие по водному пространству, где в волнах прячутся экзотические морские существа, а среди льдин курсируют пираты. Но что же с виновницей всего происшедшего? На этот раз для воссоединения с орехом она отправится туда, куда еще никогда не ступала лапа доисторической белки...
Страна: США
Продолжительность: 00:02:34
Перевод: Многоголосый, закадровый

Файл
Кодек: H.264/MPEG-4 AVC
Качество: WEBRip
Видео: 848x360, 23.97fps, 400 Kbps
Звук: AAC, 22050Hz, stereo, 75.9 Kbps

General
Complete name : Scrats.Continental.Crack-Up.Part2.mp4
Format : MPEG-4
Format profile : Base Media
Codec ID : isom
File size : 8.92 MiB
Duration : 2mn 34s
Overall bit rate : 484 Kbps
Writing application : Lavf52.77.0

Video
ID : 1
Format : AVC
Format/Info : Advanced Video Codec
Format profile : High@L3.0
Format settings, CABAC : Yes
Format settings, ReFrames : 4 frames
Codec ID : avc1
Codec ID/Info : Advanced Video Coding
Duration : 2mn 34s
Bit rate mode : Variable
Bit rate : 400 Kbps
Width : 848 pixels
Height : 360 pixels
Display aspect ratio : 2.35:1
Frame rate mode : Constant
Frame rate : 23.976 fps
Color space : YUV
Chroma subsampling : 4:2:0
Bit depth : 8 bits
Scan type : Progressive
Bits/(Pixel*Frame) : 0.055
Stream size : 7.45 MiB (83%)
Writing library : x264 core 98
Encoding settings : cabac=1 / ref=4 / deblock=1:0:0 / analyse=0x3:0x113 / me=umh / subme=8 / psy=1 / psy_rd=1.00:0.00 / mixed_ref=1 / me_range=16 / chroma_me=1 / trellis=1 / 8x8dct=1 / cqm=0 / deadzone=21,11 / fast_pskip=1 / chroma_qp_offset=-2 / threads=4 / sliced_threads=0 / nr=0 / decimate=1 / interlaced=0 / constrained_intra=0 / bframes=3 / b_pyramid=0 / b_adapt=2 / b_bias=0 / direct=3 / weightb=1 / weightp=2 / keyint=25 / keyint_min=13 / scenecut=40 / intra_refresh=0 / rc_lookahead=25 / rc=abr / mbtree=1 / bitrate=400 / ratetol=10.0 / qcomp=0.60 / qpmin=10 / qpmax=51 / qpstep=4 / ip_ratio=1.41 / aq=1:1.00

Audio
ID : 2
Format : AAC
Format/Info : Advanced Audio Codec
Format version : Version 4
Format profile : LC
Format settings, SBR : Yes
Format settings, PS : No
Codec ID : 40
Duration : 2mn 34s
Bit rate mode : Variable
Bit rate : 75.9 Kbps
Channel(s) : 2 channels
Channel positions : Front: L R
Sampling rate : 44.1 KHz
Stream size : 1.40 MiB (16%)



Релиз от: lostfilm



   Похожие торренты   Торрент   Размер 
В этой теме нет новых непрочитанных сообщений. Скрэт и континентальный излом: Часть 2 / Scrat's Continental Crack-Up: Part 2 (2011) HDRip 1080p

14 | 3

176.72 МБ

В этой теме нет новых непрочитанных сообщений. Скрэт и континентальный излом 2 / Scrat's Continental Crack-Up: Part 2 (2011) WEB-DLRip

2 | 3

33.11 МБ

В этой теме нет новых непрочитанных сообщений. Скрэт и континентальный излом 2 / Scrat's Continental Crack-Up: Part 2 (2011) WEB-DL 1080p

20 | 3

178.13 МБ

В этой теме нет новых непрочитанных сообщений. Скрэт и континентальный излом / Scrat's Continental Crack-Up (2010) HDRip 1080p

32 | 2

191.96 МБ

В этой теме нет новых непрочитанных сообщений. Скрэт и континентальный излом / Scrat's Continental Crack-Up (2010) HDRip 720p

1 | 2

104.34 МБ

В этой теме нет новых непрочитанных сообщений. Ледниковый период 4: Континентальный дрейф / Ice Age: Continental Drift (2012) Blu-Ray

0 | 3

40.29 ГБ

В этой теме нет новых непрочитанных сообщений. Ледниковый период 4: Континентальный дрейф / Ice Age: Continental Drift (2012) BDRip 1080p

510 | 30

4.37 ГБ




Вы не можете начинать темы
Вы не можете отвечать на сообщения
Вы не можете редактировать свои сообщения
Вы не можете удалять свои сообщения
Вы не можете добавлять вложения

Перейти:  
Для Мосгорсуда, Роскомнадзора и рекламодателей: mosgorsud-torrent[собачка]yandex.ru
 Вход
ppkBB3cker v.2 © 2008-2014 @ PPK
[ Time : 1.922s | 15 Queries | GZIP : Off ]

Торрент трекер RUTOR.IN, Не можете зайти на rutor.org? Какой новый адрес рутор? Какое зеркало рутор? Не работает rutor.org и зеркала? Тогда наш торрент специально для вас. Rutor.in неофициальное зеркало rutor. В случае если у Вас заблокирован rutor или вдруг Вы не можете на него зайти, то Вы без труда сможете скачать бесплатно и без рекламы последние новинки кино, игр, сериалов и прочего у нас, на Rutor.in. Не нужно использовать прокси, чтобы зайти на рутор, достаточно воспользоваться нашим ресурсом. Все новые фильмы, игры, сериалы, книги и музыка за 2013 и 2014 годы через торрент бесплатно. Скачивайте фильмы в хорошем качестве, игры для пк, xbox, playstation без регистрации. У нас вы найдете новые Зарубежные сериалы и Русские сериалы 2013, 2014, 2015 годов. Оставайтесь с нами, качайте любимые фильмы, игры, сериалы, книги и музыку.