img image001 image001 image001 image001 image001 image001 image001 image001 image001 image001 image001 image001 image001 image001 image001

Planets Sun Sun Sun
Статистика раздачи
Автор: Снежана | Размер: 4.37 ГБ | Добавлен: 27 июл 2013
Раздают: 928    Качают: 46
Скачать торрент
Скачать торрент
Описание торрента

СообщениеДобавлено: 27 июл 2013 

#77

Информация о фильме
Название: Кунг-фу Панда 2
Оригинальное название: Kung Fu Panda 2
Год выхода: 2011
Жанр: мультфильм, боевик, комедия, приключения, семейный
Режиссер: Дженнифер Ю
В ролях: Джек Блэк, Анджелина Джоли, Дастин Хоффман, Гари Олдман, Джеки Чан, Сет Роген, Люси Лью, Дэвид Кросс, Джеймс Хонг, Мишель Йео

О фильме: Панда По наконец-то исполнит свою мечту, станет Воином Дракона и со своими друзьями и мастерами кунг-фу — Неистовой Пятеркой — защитит Великую Долину от страшного злодея и его легиона…


Выпущено: DreamWorks Animation
Продолжительность: 01:30:24
Перевод: Дублированный

Файл
Кодек: x264
Качество: BDRip (источник: Blu-ray Disc)
Видео: 1920x816 (2,35:1), 23.976 fps, 6283 kbps
Звук: 48 kHz, AC-3, 6 ch, 640 kbps
Субтитры: Русские, Английские
Скачать: сэмпл

Скриншоты

Общее
Уникальный идентификатор : 226611488233954304378035973644602685587 (0xAA7BC8FBDE138B8C805C8E957D79B893)
Полное имя : Kung.Fu.Panda.2.2011.BDRip.1080p.Rus.mkv
Формат : Matroska
Версия формата : Version 2
Размер файла : 4,37 Гбайт
Продолжительность : 1 ч. 30 м.
Общий поток : 6924 Кбит/сек
Название фильма : Кунг-фу Панда 2 / Kung Fu Panda 2 (2011)
Дата кодирования : UTC 2011-12-23 14:12:58
Программа кодирования : mkvmerge v4.0.0 ('The Stars were mine') сборка от Jun 6 2010 16:18:42
Библиотека кодирования : libebml v1.0.0 + libmatroska v1.0.0

Видео
Идентификатор : 1
Формат : AVC
Формат/Информация : Advanced Video Codec
Профиль формата : High@L4.1
Параметр CABAC формата : Да
Параметр ReFrames формата : 5 кадров
Идентификатор кодека : V_MPEG4/ISO/AVC
Продолжительность : 1 ч. 30 м.
Битрейт : 6283 Кбит/сек
Ширина : 1920 пикселей
Высота : 816 пикселей
Соотношение сторон : 2,35:1
Частота кадров : 23,976 кадра/сек
Цветовое пространство : YUV
Субдискретизация насыщенности : 4:2:0
Битовая глубина : 8 бит
Тип развёртки : Прогрессивная
Бит/(Пиксели*Кадры) : 0.167
Размер потока : 3,88 Гбайт (89%)
Заголовок : Release by AlexKa
Библиотека кодирования : x264 core 120 r2120 0c7dab9
Настройки программы : cabac=1 / ref=5 / deblock=1:0:0 / analyse=0x3:0x133 / me=umh / subme=10 / psy=1 / psy_rd=1.00:0.00 / mixed_ref=1 / me_range=32 / chroma_me=1 / trellis=2 / 8x8dct=1 / cqm=0 / deadzone=21,11 / fast_pskip=0 / chroma_qp_offset=-2 / threads=12 / sliced_threads=0 / nr=0 / decimate=0 / interlaced=0 / bluray_compat=0 / constrained_intra=0 / bframes=3 / b_pyramid=2 / b_adapt=2 / b_bias=0 / direct=3 / weightb=1 / open_gop=0 / weightp=2 / keyint=240 / keyint_min=24 / scenecut=40 / intra_refresh=0 / rc_lookahead=60 / rc=2pass / mbtree=1 / bitrate=6283 / ratetol=1.0 / qcomp=0.60 / qpmin=0 / qpmax=69 / qpstep=4 / cplxblur=20.0 / qblur=0.5 / ip_ratio=1.40 / aq=1:1.00
Язык : English

Аудио
Идентификатор : 2
Формат : AC-3
Формат/Информация : Audio Coding 3
Расширение режима : CM (complete main)
Идентификатор кодека : A_AC3
Продолжительность : 1 ч. 30 м.
Вид битрейта : Постоянный
Битрейт : 640 Кбит/сек
Каналы : 6 каналов
Расположение каналов : Front: L C R, Side: L R, LFE
Частота : 48,0 КГц
Битовая глубина : 16 бит
Метод сжатия : С потерями
Размер потока : 414 Мбайт (9%)
Язык : Russian

Текст #1
Идентификатор : 3
Формат : UTF-8
Идентификатор кодека : S_TEXT/UTF8
Идентификатор кодека/Информация : UTF-8 Plain Text
Язык : Russian

Текст #2
Идентификатор : 4
Формат : UTF-8
Идентификатор кодека : S_TEXT/UTF8
Идентификатор кодека/Информация : UTF-8 Plain Text
Язык : English

Меню
00:00:00.000 : :Chapter 01
00:03:54.275 : :Chapter 02
00:10:35.343 : :Chapter 03
00:16:09.385 : :Chapter 04
00:21:15.773 : :Chapter 05
00:29:56.628 : :Chapter 06
00:36:53.878 : :Chapter 07
00:41:14.180 : :Chapter 08
00:49:44.815 : :Chapter 09
00:54:06.826 : :Chapter 10
00:58:54.781 : :Chapter 11
01:05:09.238 : :Chapter 12
01:11:43.799 : :Chapter 13
01:15:31.902 : :Chapter 14
01:21:15.871 : :Chapter 15
01:30:23.835 : :Chapter 16



   Похожие торренты   Торрент   Размер 
В этой теме нет новых непрочитанных сообщений. Кунг-фу Панда 2 / Kung Fu Panda 2 (2011) BDRip 1080p HEVC

35 | 3

4.22 ГБ

В этой теме нет новых непрочитанных сообщений. Кунг-фу Панда 2 / Kung Fu Panda 2 (2011) BDRip 1080p | 3D-Video

306 | 8

5.64 ГБ

В этой теме нет новых непрочитанных сообщений. Кунг-фу Панда 2 / Kung Fu Panda 2 (2011) BDRip 1080p | 3D-Video | halfOU | Лицензия

12 | 2

8.33 ГБ

В этой теме нет новых непрочитанных сообщений. Кунг-фу Панда: Дилогия / Kung Fu Panda: Dilogy (2008-2011) BDRip 1080p от R.G. HD-Films | 60 fps

169 | 71

16.97 ГБ

В этой теме нет новых непрочитанных сообщений. Кунг-фу Панда: Дилогия / Kung Fu Panda: Dilogy (2008-2011) BDRip 1080p от NoLimits-Team

80 | 10

15.9 ГБ

В этой теме нет новых непрочитанных сообщений. Кунг-фу Панда / Kung Fu Panda (2008) BDRip 1080p

632 | 46

4.37 ГБ

В этой теме нет новых непрочитанных сообщений. Кунг-фу Панда 2 / Kung Fu Panda 2 (2011) BDRip-AVC

682 | 23

1.46 ГБ




Вы не можете начинать темы
Вы не можете отвечать на сообщения
Вы не можете редактировать свои сообщения
Вы не можете удалять свои сообщения
Вы не можете добавлять вложения

Перейти:  
Для Мосгорсуда, Роскомнадзора и рекламодателей: mosgorsud-torrent[собачка]yandex.ru
 Вход
ppkBB3cker v.2 © 2008-2014 @ PPK
[ Time : 0.032s | 14 Queries | GZIP : Off ]
CGP output time : 0.035s | 5 Queries | GZIP : Off

Торрент трекер RUTOR.IN, Не можете зайти на rutor.org? Какой новый адрес рутор? Какое зеркало рутор? Не работает rutor.org и зеркала? Тогда наш торрент специально для вас. Rutor.in неофициальное зеркало rutor. В случае если у Вас заблокирован rutor или вдруг Вы не можете на него зайти, то Вы без труда сможете скачать бесплатно и без рекламы последние новинки кино, игр, сериалов и прочего у нас, на Rutor.in. Не нужно использовать прокси, чтобы зайти на рутор, достаточно воспользоваться нашим ресурсом. Все новые фильмы, игры, сериалы, книги и музыка за 2013 и 2014 годы через торрент бесплатно. Скачивайте фильмы в хорошем качестве, игры для пк, xbox, playstation без регистрации. У нас вы найдете новые Зарубежные сериалы и Русские сериалы 2013, 2014, 2015 годов. Оставайтесь с нами, качайте любимые фильмы, игры, сериалы, книги и музыку.