img image001 image001 image001 image001 image001 image001 image001 image001 image001 image001 image001 image001 image001 image001 image001

Planets Sun Sun Sun
Статистика раздачи
Автор: Снежана | Размер: 744.87 МБ | Добавлен: 27 июл 2013
Раздают: 356    Качают: 34
Скачать торрент
Скачать торрент
Описание торрента

СообщениеДобавлено: 27 июл 2013 

#77

Информация о фильме
Название: Кунг-фу Панда 2
Оригинальное название: Kung Fu Panda 2
Год выхода: 2011
Жанр: мультфильм, боевик, комедия, приключения, семейный
Режиссер: Дженнифер Ю / Jennifer Yuh
В ролях: Михаил Галустян / Po, Ольга Зубкова / Tigress, Александр Хотченков / Shifu, Василий Дахненко / Shen, Диомид Виноградов / Monkey, Олег Куценко / Mantis, Александр Гаврилин / Crane, Олег Форостенко / Mr. Ping, Пётр Иващенко / Master Ox, Дмитрий Поляновский / Master Croc

О фильме:
Панда По наконец-то исполнит свою мечту, станет Воином Дракона и со своими друзьями и мастерами кунг-фу — Неистовой Пятеркой — защитит Великую Долину от страшного злодея и его легиона…
Официальный сайт

Страна: США
Студия: DreamWorks Animation, Paramount Pictures
Продолжительность: 01:30:23
Перевод: Профессиональный дублированный

Файл
Кодек: XviD / MP3
Качество: BDRip
Видео: XviD, 640x272 (2.35:1), 23.976 fps, 1 015 Kbps (0.243 bit/pixel)
Звук: MP3, 48.0 KHz, 2 ch, 128 Kbps, CBR

General
Complete name : E:Kung-Fu.Panda.2.2011.BDRip.All.Films.avi
Format : AVI
Format/Info : Audio Video Interleave
File size : 745 MiB
Duration : 1h 30mn
Overall bit rate : 1 152 Kbps
Movie name : Kung-Fu.Panda.2.2011.BDRip.All.Films
Director : ZobaNupa
Writing application : VirtualDubMod 1.5.10.3 | www.virtualdub-fr.org || (build 2550/release)

Video
ID : 0
Format : MPEG-4 Visual
Format profile : Advanced Simple@L5
Format settings, BVOP : 2
Format settings, QPel : No
Format settings, GMC : No warppoints
Format settings, Matrix : Custom
Codec ID : XVID
Codec ID/Hint : XviD
Duration : 1h 30mn
Bit rate : 1 015 Kbps
Width : 640 pixels
Height : 272 pixels
Display aspect ratio : 2.35:1
Frame rate : 23.976 fps
Color space : YUV
Chroma subsampling : 4:2:0
Bit depth : 8 bits
Scan type : Progressive
Compression mode : Lossy
Bits/(Pixel*Frame) : 0.243
Stream size : 656 MiB (88%)
Writing library : XviD 65

Audio
ID : 1
Format : MPEG Audio
Format version : Version 1
Format profile : Layer 3
Codec ID : 55
Codec ID/Hint : MP3
Duration : 1h 30mn
Bit rate mode : Constant
Bit rate : 128 Kbps
Channel(s) : 2 channels
Sampling rate : 48.0 KHz
Compression mode : Lossy
Stream size : 82.7 MiB (11%)
Alignment : Aligned on interleaves
Interleave, duration : 42 ms (1.00 video frame)
Interleave, preload duration : 504 ms
Writing library : LAME3.99
Encoding settings : -m s -V 4 -q 2 -lowpass 17 -b 128




   Похожие торренты   Торрент   Размер 
В этой теме нет новых непрочитанных сообщений. Кунг-фу Панда 2 / Kung Fu Panda 2 (2011) BDRip-AVC от HQ-ViDEO | Лицензия

273 | 12

2.18 ГБ

В этой теме нет новых непрочитанных сообщений. Кунг-фу Панда 2 / Kung Fu Panda 2 (2011) BDRip от HELLYWOOD | Лицензия

25 | 16

1.73 ГБ

В этой теме нет новых непрочитанных сообщений. Кунг-фу Панда 2 / Kung Fu Panda 2 (2011) BDRip от HQ-ViDEO | Лицензия

1984 | 60

1.46 ГБ

В этой теме нет новых непрочитанных сообщений. Кунг-фу Панда 2 / Kung Fu Panda 2 (2011) BDRip 1080p | 3D-Video | halfOU | Лицензия

12 | 2

8.33 ГБ

В этой теме нет новых непрочитанных сообщений. Кунг-фу Панда 2 / Kung Fu Panda 2 (2011) DVD9 | Лицензия

12 | 6

5.87 ГБ

В этой теме нет новых непрочитанных сообщений. Кунг-фу Панда 2 / Kung Fu Panda 2 (2011) BDRip-AVC

682 | 23

1.46 ГБ

В этой теме нет новых непрочитанных сообщений. Кунг-фу Панда 3 / Kung Fu Panda 3 (2016) BDRip от ExKinoRay | Лицензия

6030 | 351

1.46 ГБ




Вы не можете начинать темы
Вы не можете отвечать на сообщения
Вы не можете редактировать свои сообщения
Вы не можете удалять свои сообщения
Вы не можете добавлять вложения

Перейти:  
Для Мосгорсуда, Роскомнадзора и рекламодателей: mosgorsud-torrent[собачка]yandex.ru
 Вход
ppkBB3cker v.2 © 2008-2014 @ PPK
[ Time : 0.029s | 14 Queries | GZIP : Off ]

Торрент трекер RUTOR.IN, Не можете зайти на rutor.org? Какой новый адрес рутор? Какое зеркало рутор? Не работает rutor.org и зеркала? Тогда наш торрент специально для вас. Rutor.in неофициальное зеркало rutor. В случае если у Вас заблокирован rutor или вдруг Вы не можете на него зайти, то Вы без труда сможете скачать бесплатно и без рекламы последние новинки кино, игр, сериалов и прочего у нас, на Rutor.in. Не нужно использовать прокси, чтобы зайти на рутор, достаточно воспользоваться нашим ресурсом. Все новые фильмы, игры, сериалы, книги и музыка за 2013 и 2014 годы через торрент бесплатно. Скачивайте фильмы в хорошем качестве, игры для пк, xbox, playstation без регистрации. У нас вы найдете новые Зарубежные сериалы и Русские сериалы 2013, 2014, 2015 годов. Оставайтесь с нами, качайте любимые фильмы, игры, сериалы, книги и музыку.