img image001 image001 image001 image001 image001 image001 image001 image001 image001 image001 image001 image001 image001 image001 image001

Planets Sun Sun Sun
Статистика раздачи
Автор: Снежана | Размер: 35.72 МБ | Добавлен: 27 июл 2013
Раздают: 3    Качают: 2
Скачать торрент
Скачать торрент
Описание торрента

СообщениеДобавлено: 27 июл 2013 

#77

Информация о фильме
Название: Граффитигр
Оригинальное название: Graffitiger
Год выхода: 2010
Жанр: Короткометражный, Анимационный
Режиссер: Либор Пикса

О фильме:
История одинокого рисованного персонажа – тигра-граффити, который живет на стенах и фасадах Праги.

Страна: Чехия
Продолжительность: 00:10:17
Перевод: оригинал

Файл
Кодек: H264
Качество: WEBRip
Видео: 640x360, 400 Kbps, 25.00fps
Звук: AAC, 2 channels, 76.1 Kbps, 44.1 KHz

General
Complete name : Graffitiger.mp4
Format : MPEG-4
Format profile : Base Media
Codec ID : isom
File size : 35.7 MiB
Duration : 10mn 17s
Overall bit rate : 485 Kbps
Writing application : Lavf52.77.0

Video
ID : 1
Format : AVC
Format/Info : Advanced Video Codec
Format profile : High@L3.0
Format settings, CABAC : Yes
Format settings, ReFrames : 4 frames
Format settings, GOP : N=1
Codec ID : avc1
Codec ID/Info : Advanced Video Coding
Duration : 10mn 17s
Bit rate mode : Variable
Bit rate : 400 Kbps
Width : 640 pixels
Height : 360 pixels
Display aspect ratio : 16:9
Frame rate mode : Constant
Frame rate : 25.000 fps
Color space : YUV
Chroma subsampling : 4:2:0
Bit depth : 8 bits
Scan type : Progressive
Bits/(Pixel*Frame) : 0.069
Stream size : 29.8 MiB (83%)
Writing library : x264 core 98
Encoding settings : cabac=1 / ref=4 / deblock=1:0:0 / analyse=0x3:0x113 / me=umh / subme=8 / psy=1 / psy_rd=1.00:0.00 / mixed_ref=1 / me_range=16 / chroma_me=1 / trellis=1 / 8x8dct=1 / cqm=0 / deadzone=21,11 / fast_pskip=1 / chroma_qp_offset=-2 / threads=4 / sliced_threads=0 / nr=0 / decimate=1 / interlaced=0 / constrained_intra=0 / bframes=3 / b_pyramid=0 / b_adapt=2 / b_bias=0 / direct=3 / weightb=1 / weightp=2 / keyint=25 / keyint_min=13 / scenecut=40 / intra_refresh=0 / rc_lookahead=25 / rc=abr / mbtree=1 / bitrate=400 / ratetol=10.0 / qcomp=0.60 / qpmin=10 / qpmax=51 / qpstep=4 / ip_ratio=1.41 / aq=1:1.00

Audio
ID : 2
Format : AAC
Format/Info : Advanced Audio Codec
Format version : Version 4
Format profile : LC
Format settings, SBR : Yes
Format settings, PS : No
Codec ID : 40
Duration : 10mn 17s
Bit rate mode : Variable
Bit rate : 76.1 Kbps
Channel(s) : 2 channels
Channel positions : Front: L R
Sampling rate : 44.1 KHz
Stream size : 5.60 MiB (16%)


Nomination for The Best Foreign Student Film – Academy Awards 2011

The Best Czech Student Film – Czech Lion 2010

The Best Animated Film – FAMUFest 2010

The Audience Award and the second price in the international student film competition in Rio de Janeiro – AnimArte! 2011

The Best Short Animated Film – The River Film Festival Porta Portello
in Padova 2011

The Best Animated Film – The Sixth CILECT Prize 2011 (International Association of Film and Television Schools)

Prize "For the Lyricism" – IX International Festival of Animation Arts Multivision, St. Petersburg

The Best Visual Solution – The International Short Film and Animation Festival Dyvofilm, Dnetropetrovsk

Grand Prix – Kinoproba Film Festival, Yekaterinburg

The Best Animated Film in Graffiti and Street-art Style – Graff Fest,
St. Petersburg



   Похожие торренты   Торрент   Размер 
В этой теме нет новых непрочитанных сообщений. ОА / The OA [01x01 из 08] (2016) WEBRip | L1

29 | 0

949.16 МБ

В этой теме нет новых непрочитанных сообщений. Ундина [01x01-90 из 90] (2003) WebRip

1 | 18

20.25 ГБ

В этой теме нет новых непрочитанных сообщений. ОА / The OA [01x01-03 из 8] (2016) WEBRip | IdeaFilm

52 | 12

2.84 ГБ

В этой теме нет новых непрочитанных сообщений. ОА / The OA [01x01 из 08] (2016) WEBRip 1080p | L1

23 | 0

2.58 ГБ

В этой теме нет новых непрочитанных сообщений. Физрук [01x01] (2014) WEBRip

1550 | 91

315.33 МБ

В этой теме нет новых непрочитанных сообщений. Луна [01x01-20 из 30] (2015) WEBRip от Generalfilm

6 | 32

11.81 ГБ

В этой теме нет новых непрочитанных сообщений. Спецназ / S.W.A.T. [01x01 из 15] (2017) WEBRip | OMSKBIRD

11 | 0

650 МБ




Вы не можете начинать темы
Вы не можете отвечать на сообщения
Вы не можете редактировать свои сообщения
Вы не можете удалять свои сообщения
Вы не можете добавлять вложения

Перейти:  
Для Мосгорсуда, Роскомнадзора и рекламодателей: mosgorsud-torrent[собачка]yandex.ru
 Вход
ppkBB3cker v.2 © 2008-2014 @ PPK
[ Time : 0.022s | 16 Queries | GZIP : Off ]

cron