img image001 image001 image001 image001 image001 image001 image001 image001 image001 image001 image001 image001 image001 image001 image001

Planets Sun Sun Sun
Статистика раздачи
Автор: Снежана | Размер: 4.07 ГБ | Добавлен: 27 июл 2013
Раздают: 14    Качают: 3
Скачать торрент
Скачать торрент
Описание торрента

СообщениеДобавлено: 27 июл 2013 

#77

Название: Рождественская история
Оригинальное название: A Christmas Carol
Год выхода: 2009
Страна: США
Жанр: мультфильм, ужасы, фантастика, фэнтези, триллер, драма, комедия, семейный
Режиссер: Роберт Земекис
В ролях: Джим Керри, Стив Валентайн, Дэрил Сабара, Сэйдж Райан, Эмбер Гейни Миде, Райан Очоа, Бобби Пейдж, Рон Боттитта, Сэмми Ханратти, Джулиан Холлоуэй

О фильме: Это викторианская поучительная история о старом и ожесточившемся скупердяе Эбенезере Скрудже, который в течение одной ночи переживает испытание глубокого очищения. Мистер Скрудж - финансист/денежный меняла, который посвятил всю свою жизнь накоплению богатства. Он презирает всё, кроме денег, включая дружбу, любовь и рождественские праздники.


Информация о файле:
Качество: BDRp 1080p
Продолжительность: 01:35:48
Язык (перевод):
1) русский дублированный
2) оригинальная английская дорожка
Субтитры: нет
Формат: MKV
Формат 3D: OverUnder / Вертикальная стереопара

Видео: MPEG4 Video (H264), 1280x1072, 23.98 fps, 4684 Kbps
Аудио 1: AC3, 48000Hz, 6ch, 640 Kbps
Аудио 2: AC3, 48000Hz, 6ch, 640 Kbps
Format : Matroska
File size : 4.07 GiB
Duration : 1h 35mn
Overall bit rate : 6 085 Kbps
Encoded date : UTC 2010-11-17 01:51:11
Writing application : mkvmerge v2.9.7 ('Tenderness') built on Jul 1 2009 18:43:35
Writing library : libebml v0.7.7 + libmatroska v0.8.1

Video
ID : 1
Format : AVC
Format/Info : Advanced Video Codec
Format profile : High@L4.0
Format settings, CABAC : Yes
Format settings, ReFrames : 4 frames
Muxing mode : Container profile=Unknown@4.0
Codec ID : V_MPEG4/ISO/AVC
Duration : 1h 35mn
Bit rate : 4 684 Kbps
Width : 1 280 pixels
Height : 1 072 pixels
Display aspect ratio : 1.194
Frame rate : 23.976 fps
Color space : YUV
Chroma subsampling : 4:2:0
Bit depth : 8 bits
Scan type : Progressive
Bits/(Pixel*Frame) : 0.142
Stream size : 3.13 GiB (77%)
Writing library : x264 core 107 r1766 f9f0035
Encoding settings : cabac=1 / ref=4 / deblock=1:-2:-2 / analyse=0x3:0x113 / me=umh / subme=7 / psy=1 / psy_rd=1.00:0.15 / mixed_ref=1 / me_range=16 / chroma_me=1 / trellis=2 / 8x8dct=1 / cqm=0 / deadzone=21,11 / fast_pskip=1 / chroma_qp_offset=-3 / threads=6 / sliced_threads=0 / nr=0 / decimate=1 / interlaced=0 / constrained_intra=0 / bframes=6 / b_pyramid=0 / b_adapt=2 / b_bias=0 / direct=3 / weightb=1 / open_gop=0 / weightp=2 / keyint=250 / keyint_min=23 / scenecut=40 / intra_refresh=0 / rc_lookahead=40 / rc=crf / mbtree=1 / crf=18.0 / qcomp=0.60 / qpmin=10 / qpmax=51 / qpstep=4 / ip_ratio=1.40 / aq=1:1.00
Language : English

Audio #1
ID : 2
Format : AC-3
Format/Info : Audio Coding 3
Mode extension : CM (complete main)
Codec ID : A_AC3
Duration : 1h 35mn
Bit rate mode : Constant
Bit rate : 640 Kbps
Channel(s) : 6 channels
Channel positions : Front: L C R, Side: L R, LFE
Sampling rate : 48.0 KHz
Bit depth : 16 bits
Stream size : 439 MiB (11%)
Language : Russian

Audio #2
ID : 3
Format : AC-3
Format/Info : Audio Coding 3
Mode extension : CM (complete main)
Codec ID : A_AC3
Duration : 1h 35mn
Bit rate mode : Constant
Bit rate : 640 Kbps
Channel(s) : 6 channels
Channel positions : Front: L C R, Side: L R, LFE
Sampling rate : 48.0 KHz
Bit depth : 16 bits
Stream size : 439 MiB (11%)
Language : English




   Похожие торренты   Торрент   Размер 
В этой теме нет новых непрочитанных сообщений. Рождественская история / A Christmas Carol (2009) BDRip 720p | 3D-Video / Анаглиф

13 | 2

1.64 ГБ

В этой теме нет новых непрочитанных сообщений. Рождественская история / A Christmas Carol (2009) BDRip 1080p | 3D-Video

25 | 3

7.42 ГБ

В этой теме нет новых непрочитанных сообщений. Рождественская история / A Christmas Carol (2009) BDRip | 3D-Video | Crop

44 | 5

5.77 ГБ

В этой теме нет новых непрочитанных сообщений. Рождественская история / A Christmas Carol (2009) BDRip 1080p от Youtracker | 3D-Video

67 | 8

8.98 ГБ

В этой теме нет новых непрочитанных сообщений. Рождественская История / A Christmas Carol (2009) BDRip 1080p

381 | 35

8.79 ГБ

В этой теме нет новых непрочитанных сообщений. Рождественская история / A Christmas Carol (2009) BDRip от HQCLUB

131 | 7

1.46 ГБ

В этой теме нет новых непрочитанных сообщений. Рождественская история / A Christmas Carol (2009) BDRip-AVC от R.G. HD-Films | 60 fps

309 | 19

3.34 ГБ




Вы не можете начинать темы
Вы не можете отвечать на сообщения
Вы не можете редактировать свои сообщения
Вы не можете удалять свои сообщения
Вы не можете добавлять вложения

Перейти:  
Для Мосгорсуда, Роскомнадзора и рекламодателей: mosgorsud-torrent[собачка]yandex.ru
 Вход
ppkBB3cker v.2 © 2008-2014 @ PPK
[ Time : 0.050s | 17 Queries | GZIP : Off ]

Торрент трекер RUTOR.IN, Не можете зайти на rutor.org? Какой новый адрес рутор? Какое зеркало рутор? Не работает rutor.org и зеркала? Тогда наш торрент специально для вас. Rutor.in неофициальное зеркало rutor. В случае если у Вас заблокирован rutor или вдруг Вы не можете на него зайти, то Вы без труда сможете скачать бесплатно и без рекламы последние новинки кино, игр, сериалов и прочего у нас, на Rutor.in. Не нужно использовать прокси, чтобы зайти на рутор, достаточно воспользоваться нашим ресурсом. Все новые фильмы, игры, сериалы, книги и музыка за 2013 и 2014 годы через торрент бесплатно. Скачивайте фильмы в хорошем качестве, игры для пк, xbox, playstation без регистрации. У нас вы найдете новые Зарубежные сериалы и Русские сериалы 2013, 2014, 2015 годов. Оставайтесь с нами, качайте любимые фильмы, игры, сериалы, книги и музыку.