img image001 image001 image001 image001 image001 image001 image001 image001 image001 image001 image001 image001 image001 image001 image001

Planets Sun Sun Sun
Статистика раздачи
Автор: Снежана | Размер: 2.88 ГБ | Добавлен: 27 июл 2013
Раздают: 195    Качают: 12
Скачать торрент
Скачать торрент
Описание торрента

СообщениеДобавлено: 27 июл 2013 

Кунг-фу Панда / Kung Fu Panda (2008) BDRip [720p]
от DHT-Movies



Название: Кунг-фу Панда
Оригинальное название: Kung Fu Panda
Год выхода: 2008
Жанр: мультфильм, боевик, комедия, приключения, семейный
Режиссер: Марк Осборн, Джон Стивенсон
В ролях: Джек Блэк, Дастин Хоффман, Анджелина Джоли, Иэн МакШейн, Джеки Чан, Сет Роген, Люси Лью, Дэвид Кросс, Рэндолл Дак Ким, Джеймс Хонг

Сюжет фильма:
Спасение Долины Мира и всех ее обитателей от непобедимого и безжалостного мастера Тай Лунга должно лечь на плечи Воина Дракона, Избранного среди лучших из лучших, коим становится… неуклюжий, ленивый и вечно голодный панда По.

Ему предстоит долгий и трудный путь к вершинам мастерства кунг-фу бок о бок с легендарными воинами: Тигрой, Обезьяной, Богомолом, Гадюкой и Журавлем. По постигнет тайну древнего Свитка и станет Воином Дракона только в том случае, если сможет поверить в себя…





Выпущено: США
Продолжительность: 01:32:29
Перевод: Дубляж [Лицензия] + Оригинал (отдельно)

Релиз группы: | Рип от Niemand


Качество: BDRip [720p] (Source: Blu-Ray / 1080p)
Формат: MKV
Видео кодек: H.264
Видео: AVC; 1280x544 (2.35:1) pix; 4 018 Kbps ; 23.976 fps; x264(L4.1); 0.241 bits/pixel
Аудио: 48 kHz, AC3 Dolby Digital, 6 channels, ~448 kbps | Русский (Дубляж)
Аудио: 48 kHz, AC3 Dolby Digital, 6 channels, ~448 kbps | Оригинал

Код:
 General
 Unique ID                      : 246993592864230316414966330021032467779 (0xB9D13C5402BB288D9E5322BBEEA79D43)
 Complete name                  : D:ЗагрузкиКунг-фу.Панда-[Дилогия]1 частьКунг-фу.Панда.2008.D.BDRip720p.mkv
 Format                         : Matroska
 Format version                 : Version 2
 File size                      : 2.88 GiB
 Duration                       : 1h 32mn
 Overall bit rate               : 4 468 Kbps
 Encoded date                   : UTC 2012-01-09 14:36:11
 Writing application            : mkvmerge v5.0.1 ('Es ist Sommer') built on Oct 24 2011 19:45:06
 Writing library                : libebml v1.2.2 + libmatroska v1.3.0

 Video
 ID                             : 1
 Format                         : AVC
 Format/Info                    : Advanced Video Codec
 Format profile                 : High@L4.1
 Format settings, CABAC         : Yes
 Format settings, ReFrames      : 6 frames
 Codec ID                       : V_MPEG4/ISO/AVC
 Duration                       : 1h 32mn
 Bit rate                       : 4 018 Kbps
 Width                          : 1 280 pixels
 Height                         : 544 pixels
 Display aspect ratio           : 2.35:1
 Frame rate                     : 23.976 fps
 Color space                    : YUV
 Chroma subsampling             : 4:2:0
 Bit depth                      : 8 bits
 Scan type                      : Progressive
 Bits/(Pixel*Frame)             : 0.241
 Stream size                    : 2.53 GiB (88%)
 Writing library                : x264 core 119 r2106 07efeb4
 Encoding settings              : cabac=1 / ref=6 / deblock=1:-2:-1 / analyse=0x3:0x133 / me=umh / subme=10 / psy=1 / psy_rd=1.00:0.10 / mixed_ref=1 / me_range=32 / chroma_me=1 / trellis=2 / 8x8dct=1 / cqm=0 / deadzone=21,11 / fast_pskip=0 / chroma_qp_offset=-3 / threads=6 / sliced_threads=0 / nr=0 / decimate=1 / interlaced=0 / bluray_compat=0 / constrained_intra=0 / bframes=6 / b_pyramid=2 / b_adapt=2 / b_bias=0 / direct=3 / weightb=1 / open_gop=0 / weightp=2 / keyint=240 / keyint_min=6 / scenecut=40 / intra_refresh=0 / rc_lookahead=60 / rc=2pass / mbtree=1 / bitrate=4018 / ratetol=1.0 / qcomp=0.60 / qpmin=0 / qpmax=69 / qpstep=4 / cplxblur=20.0 / qblur=0.5 / ip_ratio=1.40 / aq=1:1.00
 Default                        : Yes
 Forced                         : No

 Audio
 ID                             : 2
 Format                         : AC-3
 Format/Info                    : Audio Coding 3
 Mode extension                 : CM (complete main)
 Codec ID                       : A_AC3
 Duration                       : 1h 32mn
 Bit rate mode                  : Constant
 Bit rate                       : 448 Kbps
 Channel(s)                     : 6 channels
 Channel positions              : Front: L C R, Side: L R, LFE
 Sampling rate                  : 48.0 KHz
 Bit depth                      : 16 bits
 Compression mode               : Lossy
 Stream size                    : 295 MiB (10%)
 Default                        : Yes
 Forced                         : No




   Похожие торренты   Торрент   Размер 
В этой теме нет новых непрочитанных сообщений. Кунг-фу Панда 2 / Kung Fu Panda 2 (2011) BDRip 720p от DHT-Movies

269 | 20

2.88 ГБ

В этой теме нет новых непрочитанных сообщений. Кунг-фу Панда / Kung Fu Panda (2008) BDRip 720p | 50fps

74 | 11

2.1 ГБ

В этой теме нет новых непрочитанных сообщений. Кунг-фу Панда / Kung Fu Panda (2008) BDRip 720p | Дополнительные материалы

8 | 2

2.02 ГБ

В этой теме нет новых непрочитанных сообщений. Кунг-фу Панда: Дилогия / Kung Fu Panda: Dilogy (2008/2011) BDRip 720p

472 | 26

2.89 ГБ

В этой теме нет новых непрочитанных сообщений. Кунг-фу Панда / Kung Fu Panda (2008) BDRip-AVC

1847 | 61

1.46 ГБ

В этой теме нет новых непрочитанных сообщений. Кунг-фу Панда: Дилогия / Kung Fu Panda: Dilogy (2008-2011) BDRip 720p от NoLimits-Team

44 | 7

8.74 ГБ

В этой теме нет новых непрочитанных сообщений. Кунг-фу Панда: Дилогия / Kung Fu Panda: Dilogy (2008-2011) BDRip 720p от Leonardo and Scarabey

679 | 479

5.24 ГБ




Вы не можете начинать темы
Вы не можете отвечать на сообщения
Вы не можете редактировать свои сообщения
Вы не можете удалять свои сообщения
Вы не можете добавлять вложения

Перейти:  
Для Мосгорсуда, Роскомнадзора и рекламодателей: mosgorsud-torrent[собачка]yandex.ru
 Вход
ppkBB3cker v.2 © 2008-2014 @ PPK
[ Time : 0.038s | 15 Queries | GZIP : Off ]

Торрент трекер RUTOR.IN, Не можете зайти на rutor.org? Какой новый адрес рутор? Какое зеркало рутор? Не работает rutor.org и зеркала? Тогда наш торрент специально для вас. Rutor.in неофициальное зеркало rutor. В случае если у Вас заблокирован rutor или вдруг Вы не можете на него зайти, то Вы без труда сможете скачать бесплатно и без рекламы последние новинки кино, игр, сериалов и прочего у нас, на Rutor.in. Не нужно использовать прокси, чтобы зайти на рутор, достаточно воспользоваться нашим ресурсом. Все новые фильмы, игры, сериалы, книги и музыка за 2013 и 2014 годы через торрент бесплатно. Скачивайте фильмы в хорошем качестве, игры для пк, xbox, playstation без регистрации. У нас вы найдете новые Зарубежные сериалы и Русские сериалы 2013, 2014, 2015 годов. Оставайтесь с нами, качайте любимые фильмы, игры, сериалы, книги и музыку.
cron