img image001 image001 image001 image001 image001 image001 image001 image001 image001 image001 image001 image001 image001 image001 image001

Planets Sun Sun Sun
Статистика раздачи
Автор: Снежана | Размер: 2.88 ГБ | Добавлен: 27 июл 2013
Раздают: 269    Качают: 20
Скачать торрент
Скачать торрент
Описание торрента

СообщениеДобавлено: 27 июл 2013 

Кунг-фу Панда 2 / Kung Fu Panda 2 (2011) BDRip [720p]
от DHT-Movies



Название: Кунг-фу Панда 2
Оригинальное название: Kung Fu Panda 2
Год выхода: 2011
Жанр: мультфильм, боевик, комедия, приключения, семейный
Режиссер: Дженнифер Ю
В ролях: Джек Блэк, Анджелина Джоли, Дастин Хоффман, Гари Олдман, Джеки Чан, Сет Роген, Люси Лью, Дэвид Кросс, Джеймс Хонг, Мишель Йео

Сюжет фильма:
Панда По наконец-то исполнит свою мечту, станет Воином Дракона и со своими друзьями и мастерами кунг-фу — Неистовой Пятеркой — защитит Великую Долину от страшного злодея и его легиона…





Выпущено: США
Продолжительность: 01:30:24
Перевод: Дубляж [Лицензия] + Оригинал (отдельно)

Релиз группы: | Рип от Niemand


Качество: BDRip [720p] (Source: Blu-Ray / 1080p)
Формат: MKV
Видео кодек: H.264
Видео: AVC; 1280x544 (2.35:1) pix; 4 110 Kbps; 23.976 fps; x264(L4.1); 0.246 bits/pixel
Аудио: 48 kHz, AC3 Dolby Digital, 6 channels, ~448 kbps | Русский (Дубляж)
Аудио: 48 kHz, AC3 Dolby Digital, 6 channels, ~448 kbps | Оригинал

Код:
 General
 Unique ID                      : 208232687000008409270110832758587749549 (0x9CA8281F6A35D6B5A2ADB188863174AD)
 Complete name                  : D:ЗагрузкиКунг-фу.Панда-[Дилогия]2 частьKung.Fu.Panda-2.2011.D.BDRip720p.mkv
 Format                         : Matroska
 Format version                 : Version 2
 File size                      : 2.88 GiB
 Duration                       : 1h 30mn
 Overall bit rate               : 4 559 Kbps
 Encoded date                   : UTC 2012-01-10 05:54:55
 Writing application            : mkvmerge v5.0.1 ('Es ist Sommer') built on Oct 24 2011 19:45:06
 Writing library                : libebml v1.2.2 + libmatroska v1.3.0

 Video
 ID                             : 1
 Format                         : AVC
 Format/Info                    : Advanced Video Codec
 Format profile                 : High@L4.1
 Format settings, CABAC         : Yes
 Format settings, ReFrames      : 6 frames
 Codec ID                       : V_MPEG4/ISO/AVC
 Duration                       : 1h 30mn
 Bit rate                       : 4 110 Kbps
 Width                          : 1 280 pixels
 Height                         : 544 pixels
 Display aspect ratio           : 2.35:1
 Frame rate                     : 23.976 fps
 Color space                    : YUV
 Chroma subsampling             : 4:2:0
 Bit depth                      : 8 bits
 Scan type                      : Progressive
 Bits/(Pixel*Frame)             : 0.246
 Stream size                    : 2.54 GiB (88%)
 Writing library                : x264 core 119 r2106 07efeb4
 Encoding settings              : cabac=1 / ref=6 / deblock=1:-2:-1 / analyse=0x3:0x133 / me=umh / subme=10 / psy=1 / psy_rd=1.00:0.10 / mixed_ref=1 / me_range=32 / chroma_me=1 / trellis=2 / 8x8dct=1 / cqm=0 / deadzone=21,11 / fast_pskip=0 / chroma_qp_offset=-3 / threads=6 / sliced_threads=0 / nr=0 / decimate=1 / interlaced=0 / bluray_compat=0 / constrained_intra=0 / bframes=6 / b_pyramid=2 / b_adapt=2 / b_bias=0 / direct=3 / weightb=1 / open_gop=0 / weightp=2 / keyint=240 / keyint_min=6 / scenecut=40 / intra_refresh=0 / rc_lookahead=60 / rc=2pass / mbtree=1 / bitrate=4110 / ratetol=1.0 / qcomp=0.60 / qpmin=0 / qpmax=69 / qpstep=4 / cplxblur=20.0 / qblur=0.5 / ip_ratio=1.40 / aq=1:1.00
 Default                        : Yes
 Forced                         : No

 Audio
 ID                             : 2
 Format                         : AC-3
 Format/Info                    : Audio Coding 3
 Mode extension                 : CM (complete main)
 Codec ID                       : A_AC3
 Duration                       : 1h 30mn
 Bit rate mode                  : Constant
 Bit rate                       : 448 Kbps
 Channel(s)                     : 6 channels
 Channel positions              : Front: L C R, Side: L R, LFE
 Sampling rate                  : 48.0 KHz
 Bit depth                      : 16 bits
 Compression mode               : Lossy
 Stream size                    : 290 MiB (10%)
 Default                        : Yes
 Forced                         : No




   Похожие торренты   Торрент   Размер 
В этой теме нет новых непрочитанных сообщений. Кунг-фу Панда / Kung Fu Panda (2008) BDRip 720p от DHT-Movies

195 | 12

2.88 ГБ

В этой теме нет новых непрочитанных сообщений. Кунг-фу Панда: Дилогия / Kung Fu Panda: Dilogy (2008/2011) BDRip 720p

472 | 26

2.89 ГБ

В этой теме нет новых непрочитанных сообщений. Кунг-фу Панда 2 / Kung Fu Panda 2 (2011) BDRip-AVC

682 | 23

1.46 ГБ

В этой теме нет новых непрочитанных сообщений. Кунг-фу Панда: Дилогия / Kung Fu Panda: Dilogy (2008-2011) BDRip 720p от Leonardo and Scarabey

706 | 485

5.24 ГБ

В этой теме нет новых непрочитанных сообщений. Кунг-фу Панда: Дилогия / Kung Fu Panda: Dilogy (2008-2011) BDRip 720p от NoLimits-Team

44 | 7

8.74 ГБ

В этой теме нет новых непрочитанных сообщений. Кунг-фу Панда 2 / Kung Fu Panda 2 (2011) BDRip 1080p

928 | 46

4.37 ГБ

В этой теме нет новых непрочитанных сообщений. Кунг-фу Панда 2 / Kung Fu Panda 2 (2011) BDRip от HQCLUB

374 | 19

1.45 ГБ




Вы не можете начинать темы
Вы не можете отвечать на сообщения
Вы не можете редактировать свои сообщения
Вы не можете удалять свои сообщения
Вы не можете добавлять вложения

Перейти:  
Для Мосгорсуда, Роскомнадзора и рекламодателей: mosgorsud-torrent[собачка]yandex.ru
 Вход
ppkBB3cker v.2 © 2008-2014 @ PPK
[ Time : 0.052s | 14 Queries | GZIP : Off ]

Торрент трекер RUTOR.IN, Не можете зайти на rutor.org? Какой новый адрес рутор? Какое зеркало рутор? Не работает rutor.org и зеркала? Тогда наш торрент специально для вас. Rutor.in неофициальное зеркало rutor. В случае если у Вас заблокирован rutor или вдруг Вы не можете на него зайти, то Вы без труда сможете скачать бесплатно и без рекламы последние новинки кино, игр, сериалов и прочего у нас, на Rutor.in. Не нужно использовать прокси, чтобы зайти на рутор, достаточно воспользоваться нашим ресурсом. Все новые фильмы, игры, сериалы, книги и музыка за 2013 и 2014 годы через торрент бесплатно. Скачивайте фильмы в хорошем качестве, игры для пк, xbox, playstation без регистрации. У нас вы найдете новые Зарубежные сериалы и Русские сериалы 2013, 2014, 2015 годов. Оставайтесь с нами, качайте любимые фильмы, игры, сериалы, книги и музыку.