img image001 image001 image001 image001 image001 image001 image001 image001 image001 image001 image001 image001 image001 image001 image001

Planets Sun Sun Sun
Статистика раздачи
Автор: Снежана | Размер: 350.72 МБ | Добавлен: 27 июл 2013
Раздают: 2    Качают: 3
Скачать торрент
Скачать торрент
Описание торрента

СообщениеДобавлено: 27 июл 2013 

#77

Страна: США
Жанр: Mультфильм, короткометражка, комедия, семейный
Продолжительность: 00:03:25
Год выпуска: 2000
Перевод: Не требуется
Русские субтитры: нет
Режиссёр: Ральф Эглестон / Ralph Eggleston

Описание:
Позитивный красочный мульт, про птичек на проводе. Мелкие воробьи vs. Большая птица. Но хорошо смеётся тот, кто смеётся последний.
Награды и номинации:
В 2002 году aнимационный ролик получил награду «Оскар» в номинации «Лучший короткометражный анимационный фильм».
Интересные факты:
Согласно официальному сайту Pixar, первые четыре птички на самом деле имеют имена и индивидуальные особенности. Слева направо: Дробилка, Задира, Сноб и Неврастеничка. Если присмотреться они ведут себя согласно их именам.
Эту же группу птичек можно увидеть в мультфильме «Тачки», когда Мак проезжает мимо линии электропередач.


Качество: BDRip 1080p
Формат: MKV
Видео: H.264, 1920x1038, 23.976fps, 12.8Mbps
Аудио: DTS, 48kHz, 3/2 (L,C,R,l,r) + LFE ch, 1536kbps
Субтитры: Отсутствуют
General
Unique ID : 204898951671228099693164956177125664021 (0x9A261A47E83FAC51BB2960ED5AA8E515)
Complete name : D:Cartoons2000 - For the Birds.mkv
Format : Matroska
Format version : Version 2
File size : 351 MiB
Duration : 3mn 25s
Overall bit rate : 14.3 Mbps
Encoded date : UTC 2012-01-24 18:02:51
Writing application : mkvmerge v5.2.1 ('A Far Off Place') built on Jan 2 2012 23:21:10
Writing library : libebml v1.2.3 + libmatroska v1.3.0
Video
ID : 1
Format : AVC
Format/Info : Advanced Video Codec
Format profile : High@L4.1
Format settings, CABAC : Yes
Format settings, ReFrames : 4 frames
Codec ID : V_MPEG4/ISO/AVC
Duration : 3mn 25s
Bit rate : 12.8 Mbps
Width : 1 920 pixels
Height : 1 038 pixels
Display aspect ratio : 1.850
Frame rate : 23.976 fps
Color space : YUV
Chroma subsampling : 4:2:0
Bit depth : 8 bits
Scan type : Progressive
Bits/(Pixel*Frame) : 0.268
Stream size : 307 MiB (87%)
Title : H.264, 1920x1038, 23.976fps, 12.8Mbps
Writing library : x264 core 116 r2074 2641b9e
Encoding settings : cabac=1 / ref=4 / deblock=1:-1:-1 / analyse=0x3:0x113 / me=umh / subme=7 / psy=1 / psy_rd=1.00:0.00 / mixed_ref=1 / me_range=16 / chroma_me=1 / trellis=2 / 8x8dct=1 / cqm=0 / deadzone=21,11 / fast_pskip=1 / chroma_qp_offset=-2 / threads=3 / sliced_threads=0 / nr=0 / decimate=1 / interlaced=0 / bluray_compat=0 / constrained_intra=0 / bframes=3 / b_pyramid=0 / b_adapt=2 / b_bias=0 / direct=3 / weightb=1 / open_gop=0 / weightp=2 / keyint=250 / keyint_min=23 / scenecut=40 / intra_refresh=0 / rc_lookahead=40 / rc=2pass / mbtree=1 / bitrate=12792 / ratetol=1.0 / qcomp=0.60 / qpmin=10 / qpmax=51 / qpstep=4 / cplxblur=20.0 / qblur=0.5 / vbv_maxrate=50000 / vbv_bufsize=50000 / nal_hrd=none / ip_ratio=1.40 / aq=1:1.00
Default : Yes
Forced : No
Audio
ID : 2
Format : DTS
Format/Info : Digital Theater Systems
Format profile : ES
Codec ID : A_DTS
Duration : 3mn 25s
Bit rate mode : Constant
Bit rate : 1 510 Kbps
Channel(s) : 6 channels
Channel positions : Front: L C R, Side: L R, LFE
Sampling rate : 48.0 KHz
Bit depth : 24 bits
Compression mode : Lossy
Stream size : 36.9 MiB (11%)
Title : DTS, 48kHz, 6ch, 1536kbps
Default : Yes
Forced : No



   Похожие торренты   Торрент   Размер 
В этой теме нет новых непрочитанных сообщений. О птичках / For the Birds (2000) BDRip 720 от SuperMin

54 | 10

107.77 МБ

В этой теме нет новых непрочитанных сообщений. Angry Birds в кино / The Angry Birds Movie (2016) BDRip 1080p от Ash61 | 3D-Video | halfOU | iTunes

107 | 47

11.17 ГБ

В этой теме нет новых непрочитанных сообщений. Angry Birds в кино / The Angry Birds Movie (2016) BDRip 1080p от Ash61 | 3D-Video | halfOU | iTunes

0 | 0

11.64 ГБ

В этой теме нет новых непрочитанных сообщений. Angry Birds в кино / Angry Birds (2016) BDRip 1080p | 3D-Video | HSBS | Лицензия

10 | 1

11.42 ГБ

В этой теме нет новых непрочитанных сообщений. Angry Birds в кино / Angry Birds (2016) BDRip 1080p | 3D-Video | hSBS | iTunes

270 | 53

11.62 ГБ

В этой теме нет новых непрочитанных сообщений. Angry Birds в кино / The Angry Birds Movie (2016) BDRip 1080p от NNNB | Лицензия

0 | 0

5.75 ГБ

В этой теме нет новых непрочитанных сообщений. Angry Birds в кино / The Angry Birds Movie (2016) BDRip 1080p от ExKinoRay | iTunes

993 | 70

8.41 ГБ




Вы не можете начинать темы
Вы не можете отвечать на сообщения
Вы не можете редактировать свои сообщения
Вы не можете удалять свои сообщения
Вы не можете добавлять вложения

Перейти:  
Для Мосгорсуда, Роскомнадзора и рекламодателей: mosgorsud-torrent[собачка]yandex.ru
 Вход
ppkBB3cker v.2 © 2008-2014 @ PPK
[ Time : 0.021s | 15 Queries | GZIP : Off ]

Торрент трекер RUTOR.IN, Не можете зайти на rutor.org? Какой новый адрес рутор? Какое зеркало рутор? Не работает rutor.org и зеркала? Тогда наш торрент специально для вас. Rutor.in неофициальное зеркало rutor. В случае если у Вас заблокирован rutor или вдруг Вы не можете на него зайти, то Вы без труда сможете скачать бесплатно и без рекламы последние новинки кино, игр, сериалов и прочего у нас, на Rutor.in. Не нужно использовать прокси, чтобы зайти на рутор, достаточно воспользоваться нашим ресурсом. Все новые фильмы, игры, сериалы, книги и музыка за 2013 и 2014 годы через торрент бесплатно. Скачивайте фильмы в хорошем качестве, игры для пк, xbox, playstation без регистрации. У нас вы найдете новые Зарубежные сериалы и Русские сериалы 2013, 2014, 2015 годов. Оставайтесь с нами, качайте любимые фильмы, игры, сериалы, книги и музыку.
cron