img image001 image001 image001 image001 image001 image001 image001 image001 image001 image001 image001 image001 image001 image001 image001

Planets Sun Sun Sun
Статистика раздачи
Автор: Снежана | Размер: 16.11 ГБ | Добавлен: 27 июл 2013
Раздают: 55    Качают: 6
Скачать торрент
Скачать торрент
Описание торрента

СообщениеДобавлено: 27 июл 2013 

#77

Страна: США
Жанр: Ужасы, Триллер, Фантастика
Продолжительность: 01:17:39
Год выпуска: 2011
Перевод: Любительская (одноголосая закадровая) [Студия "Jetvis" (Jet)]
Перевод: Любительский (двухголосый закадровый) [ELEKTRI4KA]
Субтитры: русские (lREM1Xl), английские
Режиссёр: Майк Диса / Mike Disa
Роли озвучивали: Кристофер Джадж в роли Ника Куттнера (голос), Питер Вудвард в роли ведущего (голос)

Описание: В работе над Dead Space Aftermath объединили свои усилия завоевавшая признание критиков команда игровых разработчиков и компания, создавшая оригинальный анимационный фильм 2008 года. Несколько всемирно известных режиссеров-мультипликаторов продемонстрируют игрокам свой уникальный взгляд на события, сопровождавшие первую спасательную экспедицию в систему Aegis VII – события, выходящие за рамки времени и пространства и увиденные глазами четырех уцелевших членов команды.
Действие в Dead Space Aftermath разворачиваются в 2509 году, когда Земля теряет связь не только с Ishimura и Айзеком Кларком, но также со спасательным кораблем O'Bannon, отправленным им на помощь. Четырем членам команды O'Bannon удалось спастись, но никто не знает, что случилось с их товарищами, чем они занимались и какие тайны скрывает их исчезновение. Все это вы узнаете в Aftermath!
Работу над новым проектом возглавили принимавшие участие в создании оригинального анимационного фильма Dead Space продюсер Джо Гойетт (Joe Goyette) и главный режиссер Майк Диса (Mike Disa). В работе над созданием и продвижением проекта Dead Space Aftermath также примет участие компания Film Roman («Симпсоны», «Царь горы»), а персонажей фильма будут озвучивать Кристофер Джадж («Звездные врата: SG1»), Питер Вудуорд («Вавилон 5», «Зачарованные»), Грэм МакТавиш (готовящаяся к выходу киноверсия «Хоббит»), Рикардо Чавира («Отчаянные домохозяйки») и Гвендолин Йо («Звездные войны: Войны клонов»).

Качество: BDRemux
Формат: MKV
Видео: MPEG-4 AVC Video 26025 kbps 1080p / 23,976 fps / 16:9 / High Profile 4.1
Аудио: Russian / Dolby Digital Audio / 2.0 / 48 kHz / 192 kbps | VO
Аудио: Russian / Dolby Digital Audio / 5.1 / 48 kHz / 448 kbps | DVO
Аудио: English / DTS-HD Master Audio / 5.1 / 48 kHz / 2558 kbps / 16-bit (DTS Core: 5.1 / 48 kHz / 1509 kbps / 16-bit)
General
Complete name : F: -= Фильмы =-Мёртвый космос. Последствия (2011. Dead Space. Aftermath).mkv
Format : Matroska
File size : 16.1 GiB
Duration : 1h 17mn
Overall bit rate : 29.7 Mbps
Encoded date : UTC 2012-01-30 00:49:23
Writing application : mkvmerge v4.9.1 ('Ich will') сборка от Jul 11 2011 23:53:15
Writing library : libebml v1.2.1 + libmatroska v1.1.1
Video
ID : 1
Format : AVC
Format/Info : Advanced Video Codec
Format profile : High@L4.1
Format settings, CABAC : Yes
Format settings, ReFrames : 2 frames
Muxing mode : Container profile=Unknown@0.0
Codec ID : V_MPEG4/ISO/AVC
Duration : 1h 17mn
Bit rate mode : Variable
Width : 1 920 pixels
Height : 1 080 pixels
Display aspect ratio : 16:9
Frame rate : 23.976 fps
Color space : YUV
Chroma subsampling : 4:2:0
Bit depth : 8 bits
Scan type : Progressive
Language : English
Audio #1
ID : 2
Format : AC-3
Format/Info : Audio Coding 3
Mode extension : CM (complete main)
Codec ID : A_AC3
Duration : 1h 17mn
Bit rate mode : Constant
Bit rate : 192 Kbps
Channel(s) : 2 channels
Channel positions : Front: L R
Sampling rate : 48.0 KHz
Bit depth : 16 bits
Stream size : 107 MiB (1%)
Title : VO [Студия "Jetvis"]
Language : Russian
Audio #2
ID : 3
Format : AC-3
Format/Info : Audio Coding 3
Mode extension : CM (complete main)
Codec ID : A_AC3
Duration : 1h 17mn
Bit rate mode : Constant
Bit rate : 448 Kbps
Channel(s) : 6 channels
Channel positions : Front: L C R, Side: L R, LFE
Sampling rate : 48.0 KHz
Bit depth : 16 bits
Stream size : 249 MiB (2%)
Title : DVO [ELEKTRI4KA]
Language : Russian
Audio #3
ID : 4
Format : DTS
Format/Info : Digital Theater Systems
Format profile : MA
Codec ID : A_DTS
Duration : 1h 17mn
Bit rate mode : Variable
Channel(s) : 6 channels
Channel positions : Front: L C R, Side: L R, LFE
Sampling rate : 48.0 KHz
Bit depth : 24 bits
Language : English
Text #1
ID : 5
Format : UTF-8
Codec ID : S_TEXT/UTF8
Codec ID/Info : UTF-8 Plain Text
Title : lREM1Xl
Language : Russian
Text #2
ID : 6
Format : UTF-8
Codec ID : S_TEXT/UTF8
Codec ID/Info : UTF-8 Plain Text
Language : English



   Похожие торренты   Торрент   Размер 
В этой теме нет новых непрочитанных сообщений. Мёртвый Космос: Последствия / Dead Space: Aftermath (2011) HDRip

40 | 6

1.37 ГБ

В этой теме нет новых непрочитанных сообщений. Мёртвый Космос: Последствия / Dead Space: Aftermath (2011) BDRip 720p

75 | 37

2.65 ГБ

В этой теме нет новых непрочитанных сообщений. Мёртвый Космос: Последствия / Dеad Space: Aftermath (2011) HDRip

33 | 3

1.36 ГБ

В этой теме нет новых непрочитанных сообщений. Мертвый космос / Dead Space (1991) DVDRip

13 | 7

743.88 МБ

В этой теме нет новых непрочитанных сообщений. Мертвый космос / Dead Space (1990) DVDRip | A

103 | 11

1.46 ГБ

В этой теме нет новых непрочитанных сообщений. Мертвый Космос - Анимированный комикс / Dead Space - Animated Comics [Full Series] (2008) HDRip-AVC 720p [Hi10P] от FREEISLAND

251 | 6

696.28 МБ

В этой теме нет новых непрочитанных сообщений. Космос: Территория смерти / Dead Space: Downfall (2008) BDRemux

17 | 4

15.36 ГБ




Вы не можете начинать темы
Вы не можете отвечать на сообщения
Вы не можете редактировать свои сообщения
Вы не можете удалять свои сообщения
Вы не можете добавлять вложения

Перейти:  
Для Мосгорсуда, Роскомнадзора и рекламодателей: mosgorsud-torrent[собачка]yandex.ru
 Вход
ppkBB3cker v.2 © 2008-2014 @ PPK
[ Time : 0.091s | 14 Queries | GZIP : Off ]

Торрент трекер RUTOR.IN, Не можете зайти на rutor.org? Какой новый адрес рутор? Какое зеркало рутор? Не работает rutor.org и зеркала? Тогда наш торрент специально для вас. Rutor.in неофициальное зеркало rutor. В случае если у Вас заблокирован rutor или вдруг Вы не можете на него зайти, то Вы без труда сможете скачать бесплатно и без рекламы последние новинки кино, игр, сериалов и прочего у нас, на Rutor.in. Не нужно использовать прокси, чтобы зайти на рутор, достаточно воспользоваться нашим ресурсом. Все новые фильмы, игры, сериалы, книги и музыка за 2013 и 2014 годы через торрент бесплатно. Скачивайте фильмы в хорошем качестве, игры для пк, xbox, playstation без регистрации. У нас вы найдете новые Зарубежные сериалы и Русские сериалы 2013, 2014, 2015 годов. Оставайтесь с нами, качайте любимые фильмы, игры, сериалы, книги и музыку.